Ana Caram - Hollywood Rio (2004) Repost New Rip

New Download Links
Speed
 kbps
 kbps
 kbps

Ana Caram - Hollywood Rio (2004)
EAC | FLAC | Image (Cue&Log) ~ 289 Mb (incl 5%) | Mp3 (CBR320) ~ 138 Mb (incl 5%) | Scans included
Genre: Brazilian Jazz, Vocal Jazz, Bossa Nova | Label: Chesky Records | # JD276 | Time: 00:42:25

A superior Brazilian jazz singer, Ana Caram takes a slight detour on this CD, stretching her repertoire while mostly still performing in a style influenced by bossa nova. One does not get to hear such songs as "I'm Getting Sentimental Over You," "Raindrops Keep Falling On My Head," "Smile," and "As Time Goes By" in a bossa nova setting that often. Also unusual is that Michel Freidenson plays all of the instruments other than the reeds (which are performed by Lawrence Feldman), and most of his electronic instruments sound real enough not to be an issue. The focus throughout is on Caram's lovely voice and she excels on this material, showing that it really is not what you sing but how you sing it. Recommended.

Review by Scott Yanow, Allmusic.com


Ana Caram at Allmusic
Ana Caram Website
Ana Caram at Wiki

Tracklist:

01. Estate (04:09)
02. The Summer Knows (03:19)
03. Here There and Everywhere (03:49)
04. I'm Getting Sentimental Over You (03:13)
05. The Shadow Of Your Smile (03:43)
06. Raindrops Keep Falling On My Head (03:45)
07. Linda (03:39)
08. Tempero Brasileiro (03:09)
09. Smile (02:52)
10. As Time Goes By (03:28)
11. I Will Wait For You (04:16)
12. Pra Voce (03:02)


EAC log
Exact Audio Copy V1.0 beta 6 from 9. April 2015

Отчёт EAC об извлечении, выполненном 7. июня 2015, 18:08

Ana Caram / Hollywood Rio

Дисковод: SONY CD-RW CRX230ED Adapter: 1 ID: 0

Режим чтения : Достоверность
Использование точного потока : Да
Отключение кэша аудио : Да
Использование указателей C2 : Нет

Коррекция смещения при чтении : 6
Способность читать области Lead-in и Lead-out : Нет
Заполнение пропущенных сэмплов тишиной : Да
Удаление блоков с тишиной в начале и конце : Нет
При вычислениях CRC использовались нулевые сэмплы : Да
Интерфейс : Встроенный Win32-интерфейс для Win NT/2000

Выходной формат : Внутренние WAV-операции
Формат сэмплов : 44.100 Гц; 16 бит; стерео TOC извлечённого CD

Трек | Старт | Длительность | Начальный сектор | Конечный сектор
---------------------------------------------------------------------
1 | 0:00.00 | 4:09.10 | 0 | 18684
2 | 4:09.10 | 3:19.00 | 18685 | 33609
3 | 7:28.10 | 3:49.00 | 33610 | 50784
4 | 11:17.10 | 3:13.00 | 50785 | 65259
5 | 14:30.10 | 3:43.00 | 65260 | 81984
6 | 18:13.10 | 3:45.00 | 81985 | 98859
7 | 21:58.10 | 3:39.00 | 98860 | 115284
8 | 25:37.10 | 3:09.00 | 115285 | 129459
9 | 28:46.10 | 2:52.00 | 129460 | 142359
10 | 31:38.10 | 3:29.00 | 142360 | 158034
11 | 35:07.10 | 4:16.00 | 158035 | 177234
12 | 39:23.10 | 3:02.20 | 177235 | 190904 Характеристики диапазона извлечения и сообщения об ошибках

Выбранный диапазон

Имя файла F:MusicCDTorrentAna Caram - Hollywood RioAna Caram - Hollywood Rio.wav

Пиковый уровень 99.1 %
Скорость извлечения 7.7 X
Качество диапазона 100.0 %
CRC теста 796E7D0C
CRC копии 796E7D0C
Копирование... OK

Ошибок не произошло


AccurateRip: сводка

Трек 1 : извлечено точно (доверие 11) [B8F9D4CB] (AR v2)
Трек 2 : извлечено точно (доверие 11) [7E23AD26] (AR v2)
Трек 3 : извлечено точно (доверие 11) [89875E0E] (AR v2)
Трек 4 : извлечено точно (доверие 11) [8C48E572] (AR v2)
Трек 5 : извлечено точно (доверие 11) [9BFC35F8] (AR v2)
Трек 6 : извлечено точно (доверие 11) [040B8CDD] (AR v2)
Трек 7 : извлечено точно (доверие 11) [094FDC49] (AR v2)
Трек 8 : извлечено точно (доверие 11) [ADD25A8A] (AR v2)
Трек 9 : извлечено точно (доверие 11) [27C2EB17] (AR v2)
Трек 10 : извлечено точно (доверие 11) [EC5CDCD9] (AR v2)
Трек 11 : извлечено точно (доверие 11) [E220DF36] (AR v2)
Трек 12 : извлечено точно (доверие 11) [893429FC] (AR v2)

Все треки извлечены точно

Конец отчёта

---- CUETools DB Plugin V2.1.6

[CTDB TOCID: cEUVC3vMJPINPov_.NH9JCGdL3Y-] found
Submit result: cEUVC3vMJPINPov_.NH9JCGdL3Y- has been confirmed
Track | CTDB Status
1 | (15/15) Accurately ripped
2 | (15/15) Accurately ripped
3 | (15/15) Accurately ripped
4 | (15/15) Accurately ripped
5 | (15/15) Accurately ripped
6 | (15/15) Accurately ripped
7 | (15/15) Accurately ripped
8 | (15/15) Accurately ripped
9 | (15/15) Accurately ripped
10 | (15/15) Accurately ripped
11 | (15/15) Accurately ripped
12 | (15/15) Accurately ripped ==== Контрольная сумма отчёта 75C0FEA673043D3D39106362AF51ACB7913D447970247EB9E41C4DD6A333618D ====

DR log
foobar2000 1.3.8 / Dynamic Range Meter 1.1.1
log date: 2015-06-07 17:31:28

--------------------------------------------------------------------------------
Analyzed: Ana Caram / Hollywood Rio
--------------------------------------------------------------------------------

DR Peak RMS Duration Track
--------------------------------------------------------------------------------
DR11 -0.16 dB -13.56 dB 4:09 01-Estate
DR9 -0.16 dB -12.20 dB 3:19 02-The Summer Knows
DR10 -0.13 dB -12.97 dB 3:49 03-Here There and Everywhere
DR10 -0.13 dB -12.36 dB 3:13 04-I'm Getting Sentimental Over You
DR10 -0.15 dB -11.84 dB 3:43 05-The Shadow Of Your Smile
DR9 -0.16 dB -11.84 dB 3:45 06-Raindrops Keep Falling On My Head
DR11 -0.16 dB -13.48 dB 3:39 07-Linda
DR10 -0.08 dB -11.38 dB 3:09 08-Tempero Brasileiro
DR10 -0.14 dB -12.31 dB 2:52 09-Smile
DR10 -0.14 dB -12.34 dB 3:29 10-As Time Goes By
DR10 -0.16 dB -12.18 dB 4:16 11-I Will Wait For You
DR9 -0.14 dB -11.98 dB 3:02 12-Pra Voce
--------------------------------------------------------------------------------

Number of tracks: 12
Official DR value: DR10

Samplerate: 44100 Hz
Channels: 2
Bits per sample: 16
Bitrate: 792 kbps
Codec: FLAC
================================================================================



All thanks to original releaser - squirr





Ana Caram | Viva La Muerte 1971 Repost | Vedio Viva La Muerte 1971 Repost Sex | Vedio Viva La Muerte 1971 Repost | Hollywood Undead Hollywood | Hollywood Fx 6 | Ash Hollywood In | Hollywood Fx Pro | Ash Hollywood Pic | Hollywood Or Bus
Ana Caram - Hollywood Rio (2004) Repost New Rip Torrent Download with keygen, crack, serial, dvdrip, hdrip, HD, 720p, 1024p, 2016, 2015