Grace Jones - Disco (2015) 3CD + Blu-Ray

New Download Links
Speed
 kbps
 kbps
 kbps
Grace Jones - Disco (2015) front

Grace Jones - Disco (2015)
EAC | Flac(Image) + Cue + Log & MP3 CBR 320Kbps
The Island Def Jam Music Group/Universal Music | ~ 1640 or 536 Mb | Scans(png) -> 168 Mb
Blu-Ray: MPEG-4 AVC Video, 950 kbps, 1080, 29,970 fps, 16:9, High Profile 4.1
LPCM Audio, 2.0, 96 kHz, 4608 kbps, 24-bit / TrueHD, 2.0, 96 kHz, 3088 kbps, 24-bit
DTS-HD Master Audio, 2.0, 96 kHz, 3632 kbps, 24-bit -> ~ 23.75 Gb
Gogo / Funk / Soul / Disco

GRACE JONES Disco (2015 UK limited edition 3-CD set featuring digitally remastered editions of her Portfolio [1977] Fame [1978] and Muse [1979] albums including unreleased tracks and rare mixes. All three discs are individually packaged andhoused together inside a deluxe sealed picture boxset with lift-off lid which comes with an extensive booklet).

Grace Jones - Disco (2015)

~ amazon

Grace Jones


Grace Jones - Disco (2015):

Grace Jones - Disco (2015) cd1

Tracklist CD01 - Portfolio (1977):

01 Send In The Clowns
02 What I Did For Love
03 Tomorrow
04 La Vie En Rose
05 Sorry
06 That's The Trouble
07 I Need A Man

Bonus Tracks:
08 Sorry (Disco Mix)
09 That's The Trouble (Disco Mix)
10 I Need A Man (Disco Mix)
11 I Need A Man (Instrumental Disco Mix)
12 Sorry (Instrumental Version)
13 That's The Trouble (Instrumental Version)
14 La Vie En Rose (Instrumental Version)

EAC Log
Exact Audio Copy V1.1 from 23. June 2015

EAC extraction logfile from 18. July 2015, 12:17

Grace Jones / Portfolio

Used drive : PLEXTOR BD-R PX-B950SA Adapter: 1 ID: 1

Read mode : Secure
Utilize accurate stream : Yes
Defeat audio cache : Yes
Make use of C2 pointers : No

Read offset correction : 6
Overread into Lead-In and Lead-Out : No
Fill up missing offset samples with silence : Yes
Delete leading and trailing silent blocks : No
Null samples used in CRC calculations : Yes
Used interface : Native Win32 interface for Win NT & 2000

Used output format : Internal WAV Routines
Sample format : 44.100 Hz; 16 Bit; Stereo TOC of the extracted CD

Track | Start | Length | Start sector | End sector
---------------------------------------------------------
1 | 0:00.00 | 7:32.68 | 0 | 33967
2 | 7:32.68 | 5:15.15 | 33968 | 57607
3 | 12:48.08 | 5:47.49 | 57608 | 83681
4 | 18:35.57 | 7:27.71 | 83682 | 117277
5 | 26:03.53 | 3:59.65 | 117278 | 135267
6 | 30:03.43 | 3:38.00 | 135268 | 151617
7 | 33:41.43 | 3:25.18 | 151618 | 167010
8 | 37:06.61 | 6:45.28 | 167011 | 197413
9 | 43:52.14 | 7:01.50 | 197414 | 229038
10 | 50:53.64 | 7:36.57 | 229039 | 263295
11 | 58:30.46 | 4:56.60 | 263296 | 285555
12 | 63:27.31 | 4:46.69 | 285556 | 307074
13 | 68:14.25 | 3:52.71 | 307075 | 324545
14 | 72:07.21 | 7:25.54 | 324546 | 357974 Range status and errors

Selected range

Filename C:UsersMeijinDesktopALLexxessGrace Jones2015 Disco (3CD Box Set Universal Music)PortfolioGrace Jones - Portfolio.wav

Peak level 100.0 %
Extraction speed 8.6 X
Range quality 100.0 %
Test CRC 853090A2
Copy CRC 853090A2
Copy OK

No errors occurred


AccurateRip summary

Track 1 accurately ripped (confidence 5) [B13D0212] (AR v2)
Track 2 accurately ripped (confidence 5) [24C85D94] (AR v2)
Track 3 accurately ripped (confidence 5) [3C3DC37D] (AR v2)
Track 4 accurately ripped (confidence 5) [A599CAD6] (AR v2)
Track 5 accurately ripped (confidence 5) [DDCCBE2D] (AR v2)
Track 6 accurately ripped (confidence 5) [A71E448F] (AR v2)
Track 7 accurately ripped (confidence 5) [CB1813F1] (AR v2)
Track 8 accurately ripped (confidence 5) [B9BF6539] (AR v2)
Track 9 accurately ripped (confidence 5) [414C6A1D] (AR v2)
Track 10 accurately ripped (confidence 5) [F93A6BFC] (AR v2)
Track 11 accurately ripped (confidence 5) [4EBBB119] (AR v2)
Track 12 accurately ripped (confidence 5) [4D33E0D8] (AR v2)
Track 13 accurately ripped (confidence 5) [2B3721C3] (AR v2)
Track 14 accurately ripped (confidence 5) [EDE8A01F] (AR v2)

All tracks accurately ripped

End of status report

---- CUETools DB Plugin V2.1.6

[CTDB TOCID: Fnm40UePO54dxUkP2r652nCngY8-] found
Submit result: already submitted
Track | CTDB Status
1 | (8/8) Accurately ripped
2 | (8/8) Accurately ripped
3 | (8/8) Accurately ripped
4 | (8/8) Accurately ripped
5 | (8/8) Accurately ripped
6 | (8/8) Accurately ripped
7 | (8/8) Accurately ripped
8 | (8/8) Accurately ripped
9 | (8/8) Accurately ripped
10 | (8/8) Accurately ripped
11 | (8/8) Accurately ripped
12 | (8/8) Accurately ripped
13 | (8/8) Accurately ripped
14 | (7/8) Accurately ripped ==== Log checksum 4FA195F15616133E0F1549D67C4917ECC4ED24724DB9D37F5E25249DEB934D05 ====

DR Log
foobar2000 1.2.9 / Dynamic Range Meter 1.1.1
log date: 2015-07-24 22:19:25

--------------------------------------------------------------------------------
Analyzed: Grace Jones / Portfolio
--------------------------------------------------------------------------------

DR Peak RMS Duration Track
--------------------------------------------------------------------------------
DR11 0.00 dB -12.85 dB 7:33 01-Send In The Clowns
DR10 0.00 dB -11.72 dB 5:15 02-What I Did For Love
DR10 0.00 dB -11.60 dB 5:48 03-Tomorrow
DR11 -0.03 dB -13.45 dB 7:28 04-La Vie En Rose
DR10 0.00 dB -11.52 dB 4:00 05-Sorry
DR9 0.00 dB -10.43 dB 3:38 06-That's The Trouble
DR10 0.00 dB -10.80 dB 3:25 07-I Need A Man
DR10 0.00 dB -11.37 dB 6:45 08-Sorry (Disco Mix) / Bonus Track
DR9 0.00 dB -11.48 dB 7:02 09-That's The Trouble (Disco Mix) / Bonus Track
DR10 0.00 dB -11.81 dB 7:37 10-I Need A Man (Disco Mix) / Bonus Track
DR11 0.00 dB -12.33 dB 4:57 11-I Need A Man (Instrumental Disco Mix) / Bonus Track
DR11 0.00 dB -12.27 dB 4:47 12-Sorry (Instrumental Version) / Bonus Track
DR10 -0.02 dB -11.54 dB 3:53 13-That's The Trouble (Instrumental Version) / Bonus Track
DR12 0.00 dB -13.77 dB 7:26 14-La Vie En Rose (Instrumental Version) / Bonus Track
--------------------------------------------------------------------------------

Number of tracks: 14
Official DR value: DR10

Samplerate: 44100 Hz
Channels: 2
Bits per sample: 16
Bitrate: 985 kbps
Codec: FLAC

CUETools Log
[CUETools log; Date: 24.07.2015 21:40:52; Version: 2.1.4]
[CTDB TOCID: Fnm40UePO54dxUkP2r652nCngY8-] found.
Track | CTDB Status
1 | (8/8) Accurately ripped
2 | (8/8) Accurately ripped
3 | (8/8) Accurately ripped
4 | (8/8) Accurately ripped
5 | (8/8) Accurately ripped
6 | (8/8) Accurately ripped
7 | (8/8) Accurately ripped
8 | (8/8) Accurately ripped
9 | (8/8) Accurately ripped
10 | (8/8) Accurately ripped
11 | (8/8) Accurately ripped
12 | (8/8) Accurately ripped
13 | (8/8) Accurately ripped
14 | (7/8) Accurately ripped
[AccurateRip ID: 00295f26-01b5694d-bb12a50e] found.
Track [ CRC | V2 ] Status
01 [2d5a9c90|b13d0212] (0+5/5) Accurately ripped
02 [053feb71|24c85d94] (0+5/5) Accurately ripped
03 [f227cdfb|3c3dc37d] (0+5/5) Accurately ripped
04 [7bd2fb5c|a599cad6] (0+5/5) Accurately ripped
05 [64cb9273|ddccbe2d] (0+5/5) Accurately ripped
06 [89e4050d|a71e448f] (0+5/5) Accurately ripped
07 [96275278|cb1813f1] (0+5/5) Accurately ripped
08 [f5405dff|b9bf6539] (0+5/5) Accurately ripped
09 [91b6e35c|414c6a1d] (0+5/5) Accurately ripped
10 [b03d85a7|f93a6bfc] (0+5/5) Accurately ripped
11 [479ecec9|4ebbb119] (0+5/5) Accurately ripped
12 [66a4f30b|4d33e0d8] (0+5/5) Accurately ripped
13 [173da0eb|2b3721c3] (0+5/5) Accurately ripped
14 [9a0f5118|ede8a01f] (0+5/5) Accurately ripped

Track Peak [ CRC32 ] [W/O NULL] [ LOG ]
-- 100,0 [853090A2] [02B16ACF] CRC32
01 100,0 [6F08F8E6] [84582E54]
02 100,0 [6544A1CC] [D7F5C8AE]
03 100,0 [96441151] [A78622C9]
04 99,6 [E783F36B] [88EBFEE2]
05 100,0 [8DE9E103] [F6D2AA8B]
06 100,0 [D9904069] [3F313BF5]
07 100,0 [9522C9F1] [0E202293]
08 100,0 [7EA93DCC] [11B8A395]
09 100,0 [C7BC74B9] [4131E7D1]
10 100,0 [01C93CDF] [8A257677]
11 100,0 [865C2D27] [60D2FA7E]
12 100,0 [277A6AD1] [68F1BA40]
13 99,7 [4A6EC554] [BAAD8252]
14 100,0 [6EA062E2] [DFE06101]

Grace Jones - Disco (2015) cd2

Tracklist CD02 - Fame (1978):

01 Do Or Die
02 Pride
03 Fame
04 Autumn Leaves
05 All On A Summer's Night
06 Am I Ever Gonna Fall In Love In New York City
07 Below The Belt

Bonus Tracks:
08 Do Or Die (12'' Disco Version)
09 Comme Un Oiseau Qui S'Envole (12'' Disco Version)
10 Anema E Core (Long Version)
11 Do Or Die (Instrumental Version)
12 Comme Un Oiseau Qui S'Envole (Instrumental Version)
13 Am I Ever Gonna Fall In Love In New York City (Instrumental Version)
14 Anema E Core (Instrumental Version)

EAC Log
Exact Audio Copy V1.1 from 23. June 2015

EAC extraction logfile from 18. July 2015, 11:37

Grace Jones / Fame

Used drive : PLEXTOR BD-R PX-B950SA Adapter: 1 ID: 1

Read mode : Secure
Utilize accurate stream : Yes
Defeat audio cache : Yes
Make use of C2 pointers : No

Read offset correction : 6
Overread into Lead-In and Lead-Out : No
Fill up missing offset samples with silence : Yes
Delete leading and trailing silent blocks : No
Null samples used in CRC calculations : Yes
Used interface : Native Win32 interface for Win NT & 2000

Used output format : Internal WAV Routines
Sample format : 44.100 Hz; 16 Bit; Stereo TOC of the extracted CD

Track | Start | Length | Start sector | End sector
---------------------------------------------------------
1 | 0:00.00 | 6:42.71 | 0 | 30220
2 | 6:42.71 | 6:26.51 | 30221 | 59221
3 | 13:09.47 | 5:35.04 | 59222 | 84350
4 | 18:44.51 | 7:03.02 | 84351 | 116077
5 | 25:47.53 | 4:17.56 | 116078 | 135408
6 | 30:05.34 | 5:31.02 | 135409 | 160235
7 | 35:36.36 | 4:44.65 | 160236 | 181600
8 | 40:21.26 | 6:15.54 | 181601 | 209779
9 | 46:37.05 | 4:30.36 | 209780 | 230065
10 | 51:07.41 | 5:03.66 | 230066 | 252856
11 | 56:11.32 | 6:24.03 | 252857 | 281659
12 | 62:35.35 | 4:31.63 | 281660 | 302047
13 | 67:07.23 | 5:29.57 | 302048 | 326779
14 | 72:37.05 | 4:28.22 | 326780 | 346901 Range status and errors

Selected range

Filename C:UsersMeijinDesktopALLexxessGrace Jones2015 Disco (3CD Box Set Universal Music)FameGrace Jones - Fame.wav

Peak level 100.0 %
Extraction speed 8.4 X
Range quality 100.0 %
Test CRC 05E49260
Copy CRC 05E49260
Copy OK

No errors occurred


AccurateRip summary

Track 1 accurately ripped (confidence 4) [6773D857] (AR v2)
Track 2 accurately ripped (confidence 4) [EAE674B1] (AR v2)
Track 3 accurately ripped (confidence 4) [50FDADB0] (AR v2)
Track 4 accurately ripped (confidence 4) [F4B7830C] (AR v2)
Track 5 accurately ripped (confidence 4) [67B8EC44] (AR v2)
Track 6 accurately ripped (confidence 4) [EA4D482D] (AR v2)
Track 7 accurately ripped (confidence 4) [BF82F849] (AR v2)
Track 8 accurately ripped (confidence 4) [F8DD1907] (AR v2)
Track 9 accurately ripped (confidence 4) [617052ED] (AR v2)
Track 10 accurately ripped (confidence 4) [79334A51] (AR v2)
Track 11 accurately ripped (confidence 4) [525881F8] (AR v2)
Track 12 accurately ripped (confidence 4) [F7FFC4FF] (AR v2)
Track 13 accurately ripped (confidence 4) [AD74084A] (AR v2)
Track 14 accurately ripped (confidence 4) [286544D8] (AR v2)

All tracks accurately ripped

End of status report

---- CUETools DB Plugin V2.1.6

[CTDB TOCID: WQk1czXNQLHGuHdUGif9Tgkx6Oc-] found
Submit result: already submitted
Track | CTDB Status
1 | (6/6) Accurately ripped
2 | (6/6) Accurately ripped
3 | (6/6) Accurately ripped
4 | (6/6) Accurately ripped
5 | (6/6) Accurately ripped
6 | (6/6) Accurately ripped
7 | (6/6) Accurately ripped
8 | (6/6) Accurately ripped
9 | (6/6) Accurately ripped
10 | (6/6) Accurately ripped
11 | (6/6) Accurately ripped
12 | (6/6) Accurately ripped
13 | (5/6) Accurately ripped
14 | (6/6) Accurately ripped ==== Log checksum 5020C7AD2BAA1363C6B36E5D2BEA9BD53EC5493C6FF0878D7FAC946EEE265B91 ====

DR Log
foobar2000 1.2.9 / Dynamic Range Meter 1.1.1
log date: 2015-07-25 08:33:49

--------------------------------------------------------------------------------
Analyzed: Grace Jones / Fame
--------------------------------------------------------------------------------

DR Peak RMS Duration Track
--------------------------------------------------------------------------------
DR11 0.00 dB -12.42 dB 6:43 01-Do Or Die
DR10 0.00 dB -11.89 dB 6:27 02-Pride
DR11 0.00 dB -12.45 dB 5:35 03-Fame
DR12 0.00 dB -14.20 dB 7:03 04-Autumn Leaves
DR10 0.00 dB -12.67 dB 4:18 05-All On A Summer's Night
DR10 0.00 dB -12.37 dB 5:31 06-Am I Ever Gonna Fall In Love In New York City
DR10 0.00 dB -11.79 dB 4:45 07-Below The Belt
DR11 0.00 dB -13.05 dB 6:16 08-Do Or Die (12'' Disco Version) / Bonus Track
DR12 0.00 dB -14.20 dB 4:30 09-Comme Un Oiseau Qui S'Envole (12'' Disco Version) / Bonus Track
DR11 -0.02 dB -12.55 dB 5:04 10-Anema E Core (Long Version) / Bonus Track
DR12 0.00 dB -13.74 dB 6:24 11-Do Or Die (Instrumental Version) / Bonus Track
DR14 -0.06 dB -15.52 dB 4:32 12-Comme Un Oiseau Qui S'Envole (Instrumental Version) / Bonus Track
DR12 0.00 dB -14.04 dB 5:30 13-Am I Ever Gonna Fall In Love In New York City (Instrumental Version) / Bonus ...
DR11 0.00 dB -12.98 dB 4:28 14-Anema E Core (Instrumental Version) / Bonus Track
--------------------------------------------------------------------------------

Number of tracks: 14
Official DR value: DR11

Samplerate: 44100 Hz
Channels: 2
Bits per sample: 16
Bitrate: 932 kbps
Codec: FLAC

CUETools Log
[CUETools log; Date: 24.07.2015 21:30:42; Version: 2.1.4]
[CTDB TOCID: WQk1czXNQLHGuHdUGif9Tgkx6Oc-] found.
Track | CTDB Status
1 | (6/6) Accurately ripped
2 | (6/6) Accurately ripped
3 | (6/6) Accurately ripped
4 | (6/6) Accurately ripped
5 | (6/6) Accurately ripped
6 | (6/6) Accurately ripped
7 | (6/6) Accurately ripped
8 | (6/6) Accurately ripped
9 | (6/6) Accurately ripped
10 | (6/6) Accurately ripped
11 | (6/6) Accurately ripped
12 | (6/6) Accurately ripped
13 | (5/6) Accurately ripped
14 | (6/6) Accurately ripped
[AccurateRip ID: 0029761b-01b45e9e-d812110e] found.
Track [ CRC | V2 ] Status
01 [3326599a|6773d857] (0+4/4) Accurately ripped
02 [2bc21e01|eae674b1] (0+4/4) Accurately ripped
03 [967ac5ee|50fdadb0] (0+4/4) Accurately ripped
04 [74c298a0|f4b7830c] (0+4/4) Accurately ripped
05 [3e8a58d8|67b8ec44] (0+4/4) Accurately ripped
06 [bc0f41fe|ea4d482d] (0+4/4) Accurately ripped
07 [9459a485|bf82f849] (0+4/4) Accurately ripped
08 [09e22a2a|f8dd1907] (0+4/4) Accurately ripped
09 [c7346693|617052ed] (0+4/4) Accurately ripped
10 [fb53f10c|79334a51] (0+4/4) Accurately ripped
11 [ae66db1f|525881f8] (0+4/4) Accurately ripped
12 [aeb87897|f7ffc4ff] (0+4/4) Accurately ripped
13 [b90f7051|ad74084a] (0+4/4) Accurately ripped
14 [ef678224|286544d8] (0+4/4) Accurately ripped

Track Peak [ CRC32 ] [W/O NULL] [ LOG ]
-- 100,0 [05E49260] [2C48631B] CRC32
01 100,0 [026CC2E2] [66D82F51]
02 100,0 [321E067A] [5271B51B]
03 100,0 [D85780F5] [4EB9323F]
04 100,0 [1914FF95] [8FF1EE98]
05 100,0 [9193C1C0] [E184D1E0]
06 100,0 [0E3ECD00] [78F6269B]
07 100,0 [55038B24] [57AA74E3]
08 100,0 [3824F21A] [4E79A9C4]
09 99,9 [1AC4BE4C] [F7848928]
10 99,7 [FA7C0691] [EB50EEE2]
11 100,0 [7CFFD440] [B13EFA3E]
12 99,2 [038D8D4D] [46ECD06C]
13 100,0 [274D7591] [7D6C7846]
14 100,0 [3FED793F] [ACDF25A1]

Grace Jones - Disco (2015) cd3

Tracklist CD03 - Muse (1979):

01 Sinning
02 Suffer
03 Repentance (Forgive Me)
04 Saved
05 Atlantic City Gambler
06 I'll Find My Way To You
07 Don't Mess With The Messer
08 On Your Knees

Bonus Tracks:
09 Don't Mess With The Messer (12'' Version)
10 La Vie En Rose (7'' Version)
11 Do Or Die (7'' Version)
12 Comme Un Oiseau Qui S'Envole (7'' Version)
13 Am I Ever Gonna Fall In Love In New York City (7'' Version)
14 On Your Knees (7'' Edit)
15 Don't Mess With The Messer (7'' Edit)

EAC Log
Exact Audio Copy V1.1 from 23. June 2015

EAC extraction logfile from 18. July 2015, 11:00

Grace Jones / Muse

Used drive : PLEXTOR BD-R PX-B950SA Adapter: 1 ID: 1

Read mode : Secure
Utilize accurate stream : Yes
Defeat audio cache : Yes
Make use of C2 pointers : No

Read offset correction : 6
Overread into Lead-In and Lead-Out : No
Fill up missing offset samples with silence : Yes
Delete leading and trailing silent blocks : No
Null samples used in CRC calculations : Yes
Used interface : Native Win32 interface for Win NT & 2000

Used output format : Internal WAV Routines
Sample format : 44.100 Hz; 16 Bit; Stereo TOC of the extracted CD

Track | Start | Length | Start sector | End sector
---------------------------------------------------------
1 | 0:00.00 | 5:07.20 | 0 | 23044
2 | 5:07.20 | 4:15.22 | 23045 | 42191
3 | 9:22.42 | 3:51.08 | 42192 | 59524
4 | 13:13.50 | 7:09.25 | 59525 | 91724
5 | 20:23.00 | 5:47.43 | 91725 | 117792
6 | 26:10.43 | 5:16.27 | 117793 | 141519
7 | 31:26.70 | 4:51.61 | 141520 | 163405
8 | 36:18.56 | 6:30.31 | 163406 | 192686
9 | 42:49.12 | 6:30.18 | 192687 | 221954
10 | 49:19.30 | 3:35.12 | 221955 | 238091
11 | 52:54.42 | 3:23.40 | 238092 | 253356
12 | 56:18.07 | 3:10.36 | 253357 | 267642
13 | 59:28.43 | 3:30.73 | 267643 | 283465
14 | 62:59.41 | 3:49.34 | 283466 | 300674
15 | 66:49.00 | 4:09.13 | 300675 | 319362 Range status and errors

Selected range

Filename C:UsersMeijinDesktopALLexxessGrace Jones2015 Disco (3CD Box Set Universal Music)MuseGrace Jones - Muse.wav

Peak level 100.0 %
Extraction speed 7.8 X
Range quality 100.0 %
Test CRC 87BE6B48
Copy CRC 87BE6B48
Copy OK

No errors occurred


AccurateRip summary

Track 1 accurately ripped (confidence 4) [703A478D] (AR v2)
Track 2 accurately ripped (confidence 4) [C219B3BB] (AR v2)
Track 3 accurately ripped (confidence 4) [65769766] (AR v2)
Track 4 accurately ripped (confidence 4) [7AB2DBB2] (AR v2)
Track 5 accurately ripped (confidence 4) [BD005ADD] (AR v2)
Track 6 accurately ripped (confidence 4) [8CD4962D] (AR v2)
Track 7 accurately ripped (confidence 4) [771EBF2E] (AR v2)
Track 8 accurately ripped (confidence 4) [8121D317] (AR v2)
Track 9 accurately ripped (confidence 4) [8DFDC649] (AR v2)
Track 10 accurately ripped (confidence 4) [DA427FFD] (AR v2)
Track 11 accurately ripped (confidence 4) [307C41EA] (AR v2)
Track 12 accurately ripped (confidence 4) [2FD4A68C] (AR v2)
Track 13 accurately ripped (confidence 4) [3ECBDF45] (AR v2)
Track 14 accurately ripped (confidence 4) [71C9EE3D] (AR v2)
Track 15 accurately ripped (confidence 4) [DD00E9FC] (AR v2)

All tracks accurately ripped

End of status report

---- CUETools DB Plugin V2.1.6

[CTDB TOCID: 99AiKdWVUGFma.meAquaIaqone0-] found
Submit result: already submitted
Track | CTDB Status
1 | (8/8) Accurately ripped
2 | (8/8) Accurately ripped
3 | (8/8) Accurately ripped
4 | (8/8) Accurately ripped
5 | (8/8) Accurately ripped
6 | (8/8) Accurately ripped
7 | (8/8) Accurately ripped
8 | (8/8) Accurately ripped
9 | (8/8) Accurately ripped
10 | (8/8) Accurately ripped
11 | (8/8) Accurately ripped
12 | (8/8) Accurately ripped
13 | (8/8) Accurately ripped
14 | (8/8) Accurately ripped
15 | (8/8) Accurately ripped ==== Log checksum 283B3C8AE06FAD2505A6245A8F8165E5ABFED7D2F2CCE7B413FFC5549D797300 ====

DR Log
foobar2000 1.2.9 / Dynamic Range Meter 1.1.1
log date: 2015-07-25 09:37:51

--------------------------------------------------------------------------------
Analyzed: Grace Jones / Muse
--------------------------------------------------------------------------------

DR Peak RMS Duration Track
--------------------------------------------------------------------------------
DR12 0.00 dB -12.47 dB 5:07 01-Sinning
DR12 0.00 dB -13.04 dB 4:15 02-Suffer
DR11 0.00 dB -12.59 dB 3:51 03-Repentance (Forgive Me)
DR10 0.00 dB -11.25 dB 7:09 04-Saved
DR11 0.00 dB -13.08 dB 5:48 05-Atlantic City Gambler
DR10 0.00 dB -11.26 dB 5:16 06-I'll Find My Way To You
DR10 0.00 dB -12.25 dB 4:52 07-Don't Mess With The Messer
DR10 0.00 dB -12.00 dB 6:30 08-On Your Knees
DR10 0.00 dB -12.28 dB 6:30 09-Don't Mess With The Messer (12'' Version) / Bonus Track
DR10 0.00 dB -12.09 dB 3:35 10-La Vie En Rose (7'' Version) / Bonus Track
DR10 0.00 dB -11.92 dB 3:24 11-Do Or Die (7'' Version) / Bonus Track
DR10 0.00 dB -11.84 dB 3:10 12-Comme Un Oiseau Qui S'Envole (7'' Version) / Bonus Track
DR10 0.00 dB -11.80 dB 3:31 13-Am I Ever Gonna Fall In Love In New York City (7'' Version) / Bonus Track
DR11 0.00 dB -12.31 dB 3:49 14-On Your Knees (7'' Edit) / Bonus Track
DR10 0.00 dB -12.65 dB 4:09 15-Don't Mess With The Messer (7'' Edit) / Bonus Track
--------------------------------------------------------------------------------

Number of tracks: 15
Official DR value: DR10

Samplerate: 44100 Hz
Channels: 2
Bits per sample: 16
Bitrate: 952 kbps
Codec: FLAC

CUETools Log
[CUETools log; Date: 24.07.2015 21:36:53; Version: 2.1.4]
[CTDB TOCID: 99AiKdWVUGFma.meAquaIaqone0-] found.
Track | CTDB Status
1 | (8/8) Accurately ripped
2 | (8/8) Accurately ripped
3 | (8/8) Accurately ripped
4 | (8/8) Accurately ripped
5 | (8/8) Accurately ripped
6 | (8/8) Accurately ripped
7 | (8/8) Accurately ripped
8 | (8/8) Accurately ripped
9 | (8/8) Accurately ripped
10 | (8/8) Accurately ripped
11 | (8/8) Accurately ripped
12 | (8/8) Accurately ripped
13 | (8/8) Accurately ripped
14 | (8/8) Accurately ripped
15 | (8/8) Accurately ripped
[AccurateRip ID: 0029731c-01d23b03-d710a20f] found.
Track [ CRC | V2 ] Status
01 [35ebefa2|703a478d] (0+4/4) Accurately ripped
02 [ed87933c|c219b3bb] (0+4/4) Accurately ripped
03 [b4b89900|65769766] (0+4/4) Accurately ripped
04 [2a28227e|7ab2dbb2] (0+4/4) Accurately ripped
05 [224bb6d1|bd005add] (0+4/4) Accurately ripped
06 [cfea5dbd|8cd4962d] (0+4/4) Accurately ripped
07 [17c83b82|771ebf2e] (0+4/4) Accurately ripped
08 [0e46dd1d|8121d317] (0+4/4) Accurately ripped
09 [abf06cd3|8dfdc649] (0+4/4) Accurately ripped
10 [bc73df50|da427ffd] (0+4/4) Accurately ripped
11 [9ca1a86e|307c41ea] (0+4/4) Accurately ripped
12 [48fb0029|2fd4a68c] (0+4/4) Accurately ripped
13 [7d8708d0|3ecbdf45] (0+4/4) Accurately ripped
14 [15e69399|71c9ee3d] (0+4/4) Accurately ripped
15 [bc3352bd|dd00e9fc] (0+4/4) Accurately ripped

Track Peak [ CRC32 ] [W/O NULL] [ LOG ]
-- 100,0 [87BE6B48] [C0945916] CRC32
01 100,0 [9FA95F08] [BCE5C522]
02 100,0 [50652C3A] [395A2C09]
03 100,0 [6A291A82] [390D9D86]
04 100,0 [1AE507A3] [AEE2B8E5]
05 100,0 [C0F72608] [34BF5048]
06 100,0 [FDC1143E] [45B4E187]
07 100,0 [D1F02675] [E555FC5D]
08 100,0 [6AE2E987] [E2D08D78]
09 100,0 [7BBAD831] [C979908C]
10 100,0 [129FE312] [66BD295C]
11 100,0 [CCC2DAFD] [8AD8FD3A]
12 100,0 [8D02DF79] [DCA83322]
13 100,0 [4F72CCC6] [6C6F27FE]
14 100,0 [3269B67E] [99740747]
15 100,0 [D0ED3382] [7056511D]

Grace Jones - Disco (2015) bd

Tracklist Blu-Ray:

Portfolio:

01 Send In The Clowns
02 What I Did For Love
03 Tomorrow
04 La Vie En Rose
05 Sorry
06 That's The Trouble
07 I Need A Man

Bonus Tracks
08 Sorry (Disco Mix)
09 That's The Trouble (Disco Mix)
10 I Need A Man (Disco Mix)
11 I Need A Man (Instrumental Disco Mix)
12 Sorry (Instrumental Version)
13 That's The Trouble (Instrumental Version)
14 La Vie En Rose (Instrumental Version)

Fame:

15 Do Or Die
16 Pride
17 Fame
18 Autumn Leaves
19 All On A Summer's Night
20 Am I Ever Gonna Fall In Love In New York City
21 Below The Belt

Bonus Tracks
22 Do Or Die (12'' Disco Version)
23 Comme Un Oiseau Qui S'Envole (12'' Disco Version)
24 Anema E Core (Long Version)
25 Do Or Die (Instrumental Version)
26 Comme Un Oiseau Qui S'Envole (Instrumental Version)
27 Am I Ever Gonna Fall In Love In New York City (Instrumental Version)
28 Anema E Core (Instrumental Version)

Muse:

29 Sinning
30 Suffer
31 Repentance (Forgive Me)
32 Saved
33 Atlantic City Gambler
34 I'll Find My Way To You
35 Don't Mess With The Messer
36 On Your Knees

Bonus Tracks
37 Don't Mess With The Messer (12'' Version)
38 La Vie En Rose (7'' Version)
39 Do Or Die (7'' Version)
40 Comme Un Oiseau Qui S'Envole (7'' Version)
41 Am I Ever Gonna Fall In Love In New York City (7'' Version)
42 On You Knees (7'' Edit)
43 Don't Mess With The Messer (7'' Edit)

BDInfo
Disc Title: GRACEJONES_DISCO
Disc Size: 24 983 466 406 bytes
Protection: AACS
BD-Java: Yes
BDInfo: 0.5.8

Notes:

BDINFO HOME:
Cinema Squid
http://www.cinemasquid.com/blu-ray/tools/bdinfo

INCLUDES FORUMS REPORT FOR:
AVS Forum Blu-ray Audio and Video Specifications Thread
http://www.avsforum.com/avs-vb/showthread.php?t=1155731 ********************
PLAYLIST: 00000.MPLS
********************

<--- BEGIN FORUMS PASTE --->
Total Video Title Codec Length Movie Size Disc Size Bitrate Bitrate Main Audio Track Secondary Audio Track ----- ------ ------- -------------- -------------- ------- ------- ------------------ --------------------- 00000.MPLS AVC 3:47:50 24 972 140 544 24 983 466 406 14,61 0,95 LPCM 2.0 4608Kbps (96kHz/24-bit) DTS-HD Master 2.0 3632Kbps (96kHz/24-bit)


DISC INFO: Disc Title: GRACEJONES_DISCO Disc Size: 24 983 466 406 bytes Protection: AACS BD-Java: Yes BDInfo: 0.5.8 PLAYLIST REPORT: Name: 00000.MPLS Length: 3:47:50.790 (h:m:s.ms) Size: 24 972 140 544 bytes Total Bitrate: 14,61 Mbps VIDEO: Codec Bitrate Description ----- ------- ----------- MPEG-4 AVC Video 950 kbps 1080i / 29,970 fps / 16:9 / High Profile 4.1 AUDIO: Codec Language Bitrate Description ----- -------- ------- ----------- LPCM Audio English 4608 kbps 2.0 / 96 kHz / 4608 kbps / 24-bit DTS-HD Master Audio English 3632 kbps 2.0 / 96 kHz / 3632 kbps / 24-bit (DTS Core: 2.0 / 48 kHz / 1509 kbps / 24-bit) Dolby TrueHD Audio English 3088 kbps 2.0 / 96 kHz / 3088 kbps / 24-bit (AC3 Embedded: 2.0 / 48 kHz / 640 kbps) FILES: Name Time In Length Size Total Bitrate ---- ------- ------ ---- ------------- 00000.M2TS 0:00:00.000 2:36:46.964 17 136 918 528 14 574 00001.M2TS 2:36:46.964 1:11:03.826 7 835 222 016 14 701 CHAPTERS: Number Time In Length Avg Video Rate Max 1-Sec Rate Max 1-Sec Time Max 5-Sec Rate Max 5-Sec Time Max 10Sec Rate Max 10Sec Time Avg Frame Size Max Frame Size Max Frame Time ------ ------- ------ -------------- -------------- -------------- -------------- -------------- -------------- -------------- -------------- -------------- -------------- 1 0:00:00.000 0:07:35.888 950 kbps 1 443 kbps 00:07:34.153 1 049 kbps 00:07:30.149 999 kbps 00:07:25.144 3 962 bytes 89 946 bytes 00:00:00.967 2 0:07:35.888 0:05:15.214 950 kbps 1 607 kbps 00:12:49.101 1 081 kbps 00:12:45.097 1 016 kbps 00:12:40.092 3 962 bytes 89 947 bytes 00:07:36.856 3 0:12:51.103 0:05:47.647 950 kbps 1 403 kbps 00:18:37.149 1 041 kbps 00:18:33.145 995 kbps 00:18:28.140 3 962 bytes 89 947 bytes 00:12:52.071 4 0:18:38.750 0:07:27.947 950 kbps 1 474 kbps 00:26:04.996 1 055 kbps 00:26:00.992 1 002 kbps 00:25:55.987 3 962 bytes 89 946 bytes 00:18:39.718 5 0:26:06.698 0:03:59.872 950 kbps 1 514 kbps 00:30:04.736 1 063 kbps 00:30:00.732 1 006 kbps 00:29:55.727 3 962 bytes 89 946 bytes 00:26:07.666 6 0:30:06.571 0:03:37.984 950 kbps 1 564 kbps 00:33:42.687 1 073 kbps 00:33:38.683 1 011 kbps 00:33:33.678 3 962 bytes 89 946 bytes 00:30:07.539 7 0:33:44.555 0:03:25.271 950 kbps 1 333 kbps 00:37:08.359 1 027 kbps 00:37:04.355 988 kbps 00:36:59.350 3 962 bytes 89 946 bytes 00:33:45.523 8 0:37:09.827 0:06:45.405 950 kbps 960 kbps 00:37:09.860 952 kbps 00:37:09.860 951 kbps 00:37:09.860 3 962 bytes 89 944 bytes 00:37:10.795 9 0:43:55.232 0:07:01.654 950 kbps 1 373 kbps 00:50:55.252 1 035 kbps 00:50:51.248 992 kbps 00:50:46.243 3 962 bytes 89 945 bytes 00:43:56.200 10 0:50:56.887 0:07:36.756 950 kbps 1 403 kbps 00:58:32.041 1 041 kbps 00:58:28.037 995 kbps 00:58:23.032 3 962 bytes 89 945 bytes 00:50:57.854 11 0:58:33.643 0:04:56.763 950 kbps 1 474 kbps 01:03:28.738 1 055 kbps 01:03:24.734 1 002 kbps 01:03:19.729 3 962 bytes 89 945 bytes 00:58:34.611 12 1:03:30.406 0:04:46.919 950 kbps 1 514 kbps 01:08:15.491 1 063 kbps 01:08:11.487 1 006 kbps 01:08:06.482 3 962 bytes 89 945 bytes 01:03:31.374 13 1:08:17.326 0:03:52.966 950 kbps 1 564 kbps 01:12:08.457 1 073 kbps 01:12:04.453 1 011 kbps 01:11:59.448 3 962 bytes 89 945 bytes 01:08:18.294 14 1:12:10.292 0:07:31.284 950 kbps 1 584 kbps 01:19:39.641 1 077 kbps 01:19:35.637 1 013 kbps 01:19:30.632 3 962 bytes 89 945 bytes 01:12:11.260 15 1:19:41.576 0:06:42.935 950 kbps 1 494 kbps 01:26:22.777 1 059 kbps 01:26:18.773 1 004 kbps 01:26:13.768 3 962 bytes 89 944 bytes 01:19:42.544 16 1:26:24.512 0:06:26.719 950 kbps 1 423 kbps 01:32:49.597 1 045 kbps 01:32:45.593 997 kbps 01:32:40.588 3 962 bytes 89 943 bytes 01:26:25.480 17 1:32:51.232 0:05:35.034 950 kbps 1 544 kbps 01:38:24.465 1 069 kbps 01:38:20.461 1 009 kbps 01:38:15.456 3 962 bytes 89 943 bytes 01:32:52.199 18 1:38:26.267 0:07:03.022 950 kbps 1 514 kbps 01:45:27.487 1 063 kbps 01:45:23.483 1 006 kbps 01:45:18.478 3 962 bytes 89 944 bytes 01:38:27.234 19 1:45:29.289 0:04:17.757 950 kbps 1 474 kbps 01:49:45.345 1 055 kbps 01:49:41.341 1 002 kbps 01:49:36.336 3 962 bytes 89 944 bytes 01:45:30.257 20 1:49:47.047 0:05:30.997 950 kbps 1 544 kbps 01:55:16.276 1 069 kbps 01:55:12.272 1 009 kbps 01:55:07.267 3 962 bytes 89 943 bytes 01:49:48.014 21 1:55:18.044 0:04:44.917 950 kbps 1 514 kbps 02:00:01.127 1 063 kbps 01:59:57.123 1 006 kbps 01:59:52.118 3 962 bytes 89 944 bytes 01:55:19.012 22 2:00:02.962 0:06:15.742 950 kbps 1 423 kbps 02:06:17.036 1 045 kbps 02:06:13.032 997 kbps 02:06:08.027 3 962 bytes 89 944 bytes 02:00:03.930 23 2:06:18.704 0:04:30.470 950 kbps 1 373 kbps 02:10:47.573 1 035 kbps 02:10:43.569 992 kbps 02:10:38.564 3 962 bytes 89 944 bytes 02:06:19.672 24 2:10:49.174 0:05:03.870 950 kbps 1 494 kbps 02:15:51.276 1 059 kbps 02:15:47.272 1 004 kbps 02:15:42.267 3 962 bytes 89 943 bytes 02:10:50.142 25 2:15:53.044 0:06:24.050 950 kbps 1 544 kbps 02:22:15.326 1 069 kbps 02:22:11.322 1 009 kbps 02:22:06.317 3 962 bytes 89 944 bytes 02:15:54.012 26 2:22:17.095 0:04:31.804 950 kbps 1 494 kbps 02:26:47.165 1 059 kbps 02:26:43.161 1 004 kbps 02:26:38.156 3 962 bytes 89 943 bytes 02:22:18.062 27 2:26:48.900 0:05:29.796 950 kbps 1 474 kbps 02:32:17.027 1 055 kbps 02:32:13.023 1 002 kbps 02:32:08.018 3 962 bytes 89 944 bytes 02:26:49.867 28 2:32:18.696 0:04:33.873 950 kbps 1 514 kbps 02:36:50.768 1 063 kbps 02:36:46.764 1 006 kbps 02:36:41.759 3 962 bytes 89 946 bytes 02:36:47.931 29 2:36:52.569 0:05:07.273 950 kbps 1 627 kbps 02:41:57.808 1 085 kbps 02:41:53.804 1 018 kbps 02:41:49.800 3 962 bytes 89 946 bytes 02:36:53.537 30 2:41:59.843 0:04:15.288 950 kbps 1 302 kbps 02:46:13.596 1 021 kbps 02:46:09.592 985 kbps 02:46:04.587 3 962 bytes 89 947 bytes 02:42:00.811 31 2:46:15.131 0:03:51.097 950 kbps 1 607 kbps 02:50:04.260 1 081 kbps 02:50:00.256 1 016 kbps 02:49:55.251 3 962 bytes 89 946 bytes 02:46:16.099 32 2:50:06.229 0:07:09.362 950 kbps 1 627 kbps 02:57:13.589 1 085 kbps 02:57:09.585 1 018 kbps 02:57:04.580 3 962 bytes 89 945 bytes 02:50:07.196 33 2:57:15.591 0:05:47.547 950 kbps 1 373 kbps 03:03:01.537 1 035 kbps 03:02:57.533 992 kbps 03:02:52.528 3 962 bytes 89 945 bytes 02:57:16.559 34 3:03:03.138 0:05:16.382 950 kbps 1 333 kbps 03:08:18.053 1 027 kbps 03:08:14.049 988 kbps 03:08:09.044 3 962 bytes 89 945 bytes 03:03:04.106 35 3:08:19.521 0:04:51.791 950 kbps 1 474 kbps 03:13:09.611 1 055 kbps 03:13:05.607 1 002 kbps 03:13:00.602 3 962 bytes 89 945 bytes 03:08:20.489 36 3:13:11.313 0:06:30.423 950 kbps 1 302 kbps 03:19:40.201 1 021 kbps 03:19:36.197 985 kbps 03:19:31.192 3 962 bytes 89 945 bytes 03:13:12.280 37 3:19:41.736 0:06:30.256 950 kbps 1 607 kbps 03:26:10.024 1 081 kbps 03:26:06.020 1 016 kbps 03:26:01.015 3 962 bytes 89 945 bytes 03:19:42.704 38 3:26:11.992 0:03:35.148 950 kbps 1 627 kbps 03:29:45.139 1 085 kbps 03:29:41.135 1 018 kbps 03:29:36.130 3 962 bytes 89 944 bytes 03:26:12.960 39 3:29:47.141 0:03:23.536 950 kbps 1 423 kbps 03:33:09.042 1 045 kbps 03:33:05.038 997 kbps 03:33:00.033 3 962 bytes 89 944 bytes 03:29:48.108 40 3:33:10.677 0:03:10.456 950 kbps 1 403 kbps 03:36:19.566 1 041 kbps 03:36:15.562 995 kbps 03:36:10.557 3 962 bytes 89 945 bytes 03:33:11.645 41 3:36:21.134 0:03:30.977 950 kbps 1 564 kbps 03:39:50.243 1 073 kbps 03:39:46.239 1 011 kbps 03:39:41.234 3 962 bytes 89 944 bytes 03:36:22.102 42 3:39:52.112 0:03:49.462 950 kbps 1 373 kbps 03:43:39.939 1 035 kbps 03:43:35.935 992 kbps 03:43:30.930 3 962 bytes 89 945 bytes 03:39:53.079 43 3:43:41.574 0:04:09.215 950 kbps 1 627 kbps 03:47:48.755 1 085 kbps 03:47:45.752 1 018 kbps 03:47:40.747 3 963 bytes 89 944 bytes 03:43:42.542 STREAM DIAGNOSTICS: File PID Type Codec Language Seconds Bitrate Bytes Packets ---- --- ---- ----- -------- -------------- -------------- ------------- ----- 00000.M2TS 4113 (0x1011) 0x1B AVC 9406,831 950 1 117 095 820 6 108 442 00000.M2TS 4352 (0x1100) 0x80 LPCM eng (English) 9406,831 4 614 5 425 934 528 30 102 272 00000.M2TS 4353 (0x1101) 0x86 DTS-HD MA eng (English) 9406,831 3 616 4 251 534 280 24 575 226 00000.M2TS 4354 (0x1102) 0x83 TrueHD eng (English) 9406,831 3 716 4 368 979 876 28 153 694 00001.M2TS 4113 (0x1011) 0x1B AVC 4263,693 950 506 337 896 2 768 734 00001.M2TS 4352 (0x1100) 0x80 LPCM eng (English) 4263,693 4 614 2 459 345 420 13 644 080 00001.M2TS 4353 (0x1101) 0x86 DTS-HD MA eng (English) 4263,693 3 667 1 954 404 832 11 286 467 00001.M2TS 4354 (0x1102) 0x83 TrueHD eng (English) 4263,693 3 755 2 001 425 294 12 966 295

<---- END FORUMS PASTE ---->

QUICK SUMMARY:

Disc Title: GRACEJONES_DISCO
Disc Size: 24 983 466 406 bytes
Protection: AACS
BD-Java: Yes
Playlist: 00000.MPLS
Size: 24 972 140 544 bytes
Length: 3:47:50.790
Total Bitrate: 14,61 Mbps
Video: MPEG-4 AVC Video / 950 kbps / 1080i / 29,970 fps / 16:9 / High Profile 4.1
Audio: English / LPCM Audio / 2.0 / 96 kHz / 4608 kbps / 24-bit
Audio: English / DTS-HD Master Audio / 2.0 / 96 kHz / 3632 kbps / 24-bit (DTS Core: 2.0 / 48 kHz / 1509 kbps / 24-bit)
Audio: English / Dolby TrueHD Audio / 2.0 / 96 kHz / 3088 kbps / 24-bit (AC3 Embedded: 2.0 / 48 kHz / 640 kbps)

Grace Jones - Disco (2015) back

All thanks go to ALLexxess



Download Grace Jones - Disco (2015):




Grace Jones Disco 2015 | Grace Jones Disco 2015 | Grace Jones Disco | Grace Jones Disco Is Safe 1 | Grace Jones Disco Years | Three Days Grace Disco | Best Of Grace Jones | Grace Jones Island Life | Alexa Grace 2015 | Beatport Top 100 Indie Dance Nu Disco March 2015
Grace Jones - Disco (2015) 3CD + Blu-Ray Torrent Download with keygen, crack, serial, dvdrip, hdrip, HD, 720p, 1024p, 2016, 2015