Kim Kashkashian Robert Levin - Johannes Brahms: Sonatas for Viola and Piano (1997)

New Download Links
Speed
 kbps
 kbps
 kbps
Kim Kashkashian, Robert Levin - Johannes Brahms: Sonatas for Viola and Piano (1997)
Kim Kashkashian, Robert Levin - Johannes Brahms: Sonaten fur Viola und Klavier (1997)
EAC | FLAC | Image (Cue&Log) ~ 209 Mb (incl 5%) | Mp3 (CBR320) ~ 142 Mb (incl 5%) | Scans included
Genre: Classical | Label: ECM | # ECM New Series 1630, 457 068-2 | Time: 00:44:04

"These two sonatas, originally written for clarinet, marked the end of an intense period of depression for Brahms, during which his creative energies had all but faded. Kim Kashkashian, whose command of the viola unearths an even deeper realm of possibility in this already engaging diptych, faithfully captures the somber circumstances of its creation. In doing so, she shows that the viola is no less an instrument of breath, drawing from deep within her lungs the sheer vocal power required to carry across such arresting music."


Tracklist:
Sonate in Es-Dur, Op. 120 No. 2:
01. I. Allegro amabile (08:27)
02. II. Allegro appassionato - Sostenuto - Tempo I (05:30)
03. III. Andante con moto - Allegro - Piu tranquillo (07:31)
Sonate in f-Moll, Op. 120 No. 1:
04. I. Allegro appassionato - Sostenuto ed espressivo (07:54)
05. II. Andante un poco Adagio (05:05)
06. III. Allegretto grazioso (04:24)
07. IV. Vivace (05:09)
Date of Recording: 11/1996
Venue: Liederhalle, Stuttgart, Germany

Exact Audio Copy V1.0 beta 3 from 29. August 2011
Отчёт EAC об извлечении, выполненном 25. июля 2013, 22:38
Kim Kashkashian, Robert Levin / Brahms - Sonaten fur Viola und Klavier
Дисковод: HL-DT-STDVDRAM GT33N Adapter: 1 ID: 0
Режим чтения : Достоверность
Использование точного потока : Да
Отключение кэша аудио : Да
Использование указателей C2 : Нет
Коррекция смещения при чтении : 103
Способность читать области Lead-in и Lead-out : Нет
Заполнение пропущенных сэмплов тишиной : Да
Удаление блоков с тишиной в начале и конце : Нет
При вычислениях CRC использовались нулевые сэмплы : Да
Интерфейс : Встроенный Win32-интерфейс для Win NT/2000
Выходной формат : Пользовательский кодировщик
Выбранный битрейт : 1024 kBit/s
Качество : Высокий
Добавление ID3-тега : Да
Утилита сжатия : C:Program Files (x86)Exact Audio CopyFlacflac.exe
Дополнительные параметры : -8 -V -T "TITLE=%title%" -T "ARTIST=%artist%" -T "ALBUMARTIST=%albumartist%" -T "ALBUM=%albumtitle%" -T "DATE=%year%" -T "TRACKTOTAL=%numtracks%" -T "GENRE=%genre%" -T "COMMENT=%comment%" -T "PERFORMER=%albuminterpret%" -T "COMPOSER=%composer%" %source% -o %dest%
TOC извлечённого CD Трек | Старт | Длительность | Начальный сектор | Конечный сектор

1 | 0:00.00 | 8:27.47 | 0 | 38071
2 | 8:27.47 | 5:30.35 | 38072 | 62856
3 | 13:58.07 | 7:31.68 | 62857 | 96749
4 | 21:30.00 | 7:54.72 | 96750 | 132371
5 | 29:24.72 | 5:05.15 | 132372 | 155261
6 | 34:30.12 | 4:24.35 | 155262 | 175096
7 | 38:54.47 | 5:09.50 | 175097 | 198321
Характеристики диапазона извлечения и сообщения об ошибках
Выбранный диапазон Имя файла O:!RipsBrahms - Sonaten fur Viola und Klavier.wav Пиковый уровень 98.0 %
Скорость извлечения 2.0 X
Качество диапазона 100.0 %
CRC теста C59EC57C
CRC копии C59EC57C
Копирование... OK
Ошибок не произошло

AccurateRip: сводка

Трек 1 : извлечено точно (доверие 6) [870E5338] (AR v2)
Трек 2 : извлечено точно (доверие 6) [9BFE0FBD] (AR v2)
Трек 3 : извлечено точно (доверие 6) [D9B2DB89] (AR v2)
Трек 4 : извлечено точно (доверие 6) [2A4834BD] (AR v2)
Трек 5 : извлечено точно (доверие 6) [1B1EBA75] (AR v2)
Трек 6 : извлечено точно (доверие 6) [AE074A0C] (AR v2)
Трек 7 : извлечено точно (доверие 6) 5E88CA6 (AR v2)

Все треки извлечены точно
Конец отчёта
==== Контрольная сумма отчёта 60542A9368FD9675ADECD105E083CB43DCA84B3ED5DF2295015F6CBA3F1FB223 ====
foobar2000 1.2 / Dynamic Range Meter 1.1.1
log date: 2015-10-10 15:26:20
Analyzed: Kim Kashkashian, Robert Levin / Brahms - Sonaten fur Viola und Klavier
DR Peak RMS Duration Track
DR15 -0.20 dB -22.10 dB 8:28 01-Sonate in Es-Dur, Op. 120 No. 2: I. Allegro amabile
DR14 -0.20 dB -20.04 dB 5:30 02-Sonate in Es-Dur, Op. 120 No. 2: II. Allegro appassionato - Sostenuto - Tempo I
DR16 -0.20 dB -23.86 dB 7:32 03-Sonate in Es-Dur, Op. 120 No. 2: III. Andante con moto - Allegro - Piu tranquillo
DR14 -1.63 dB -21.35 dB 7:55 04-Sonate in f-Moll, Op. 120 No. 1: I. Allegro appassionato - Sostenuto ed espressivo
DR16 -1.52 dB -25.44 dB 5:05 05-Sonate in f-Moll, Op. 120 No. 1: II. Andante un poco Adagio
DR13 -2.83 dB -21.98 dB 4:24 06-Sonate in f-Moll, Op. 120 No. 1: III. Allegretto grazioso
DR14 -0.17 dB -20.52 dB 5:10 07-Sonate in f-Moll, Op. 120 No. 1: IV. Vivace
Number of tracks: 7
Official DR value: DR15
Samplerate: 44100 Hz
Channels: 2
Bits per sample: 16
Bitrate: 520 kbps
Codec: FLAC
Kim Kashkashian, Robert Levin - Johannes Brahms: Sonatas for Viola and Piano (1997)
Kim Kashkashian, Robert Levin - Johannes Brahms: Sonatas for Viola and Piano (1997)
All thanks to original releaser - jebiawio
Password: designol

DOWNLOAD LINKS:
Buy Premium To Support Me & Get Resumable Support & Max Speed


Links are Interchangeable - No Password - Single Extraction


Johannes Brahms Is Safe 1 | Johannes Brahms Is Safe 1 | Mozart Piano Sonatas Gould | Scarlatti Piano Sonatas Sudbin | Beethoven Piano Sonatas Barenboim | Brahms Piano Concerto | Levin Minnemann Rudess | Mark Levin Sep 2014 | Beethoven Last Sonatas | Landowska Plays Scarlatti Sonatas
Kim Kashkashian Robert Levin - Johannes Brahms: Sonatas for Viola and Piano (1997) Torrent Download with keygen, crack, serial, dvdrip, hdrip, HD, 720p, 1024p, 2016, 2015