James Last - Classics Up To Date Vol. 9 (1980 reissue 1998 Polydor # 557 842-2)

New Download Links
Speed
 kbps
 kbps
 kbps

James Last - Classics Up To Date Vol. 9
EAC+LOG+CUE | FLAC: 305 MB | Full Artwork: 34 MB | 5% Recovery Info
Label/Cat#: Polydor # 557 842-2 | Country/Year: Germany 1998, 1980
Genre: Pop, Classical | Style: Easy Listening, Instrumental, Waltz

MD5 [X] CUE [X] LOG [X] INFO TEXT [X] ARTWORK [X]

my rip [X] not my rip [ ]



EAC LOG
Exact Audio Copy V1.0 beta 3 from 29. August 2011

EAC extraction logfile from 14. September 2013, 0:32

James Last / Classics Up To Date Vol. 9

Used drive : PIONEER BD-RW BDR-206 Adapter: 0 ID: 2

Read mode : Secure
Utilize accurate stream : Yes
Defeat audio cache : Yes
Make use of C2 pointers : No

Read offset correction : 667
Overread into Lead-In and Lead-Out : No
Fill up missing offset samples with silence : Yes
Delete leading and trailing silent blocks : No
Null samples used in CRC calculations : Yes
Used interface : Native Win32 interface for Win NT & 2000

Used output format : User Defined Encoder
Selected bitrate : 1024 kBit/s
Quality : High
Add ID3 tag : Yes
Command line compressor : C:Program FilesFLACflac.exe
Additional command line options : -5 -T "Artist=%artist%" -T "Title=%title%" -T "Album=%albumtitle%" -T "Date=%year%" -T "Tracknumber=%tracknr%" -T "Genre=%genre%" %source% -o %dest% TOC of the extracted CD

Track | Start | Length | Start sector | End sector
---------------------------------------------------------
1 | 0:00.00 | 6:40.17 | 0 | 30016
2 | 6:40.17 | 2:41.61 | 30017 | 42152
3 | 9:22.03 | 11:31.23 | 42153 | 94000
4 | 20:53.26 | 4:09.48 | 94001 | 112723
5 | 25:02.74 | 6:23.45 | 112724 | 141493
6 | 31:26.44 | 3:04.60 | 141494 | 155353
7 | 34:31.29 | 9:55.00 | 155354 | 199978
8 | 44:26.29 | 2:33.74 | 199979 | 211527
9 | 47:00.28 | 2:38.08 | 211528 | 223385 Range status and errors

Selected range

Filename F:=== VINYL RIPS ====== EAC===X FRESH RIPJames Last - Classics Up To Date Vol. 9.wav

Peak level 99.9 %
Extraction speed 6.9 X
Range quality 100.0 %
Test CRC 113F334C
Copy CRC 113F334C
Copy OK

No errors occurred


AccurateRip summary

Track 1 not present in database
Track 2 not present in database
Track 3 not present in database
Track 4 not present in database
Track 5 not present in database
Track 6 not present in database
Track 7 not present in database
Track 8 not present in database
Track 9 not present in database

None of the tracks are present in the AccurateRip database

End of status report

---- CUETools DB Plugin V2.1.3

[CTDB TOCID: 2tRfYPZa_5w_S9EYILwYJpnQXWE-] disk not present in database, Submit result: 2tRfYPZa_5w_S9EYILwYJpnQXWE- has been uploaded ==== Log checksum DE2036BFB17667369CD1517A287AF21DAC507390B6B78D729B4641E54ED92A4D ====

Dynamic Range LOG
foobar2000 1.1.14a / Dynamic Range Meter 1.1.1
log date: 2013-09-16 09:06:43

--------------------------------------------------------------------------------
Analyzed: James Last / Classics Up To Date Vol. 9
--------------------------------------------------------------------------------

DR Peak RMS Duration Track
--------------------------------------------------------------------------------
DR8 0.00 dB -10.62 dB 6:40 01-Rosen aus dem Süden
DR7 0.00 dB -9.60 dB 2:42 02-Leichtes Blut
DR7 0.00 dB -10.64 dB 11:31 03-G'schichten aus dem Wienerwald
DR10 0.00 dB -12.53 dB 4:10 04-Annen-Polka
DR9 0.00 dB -11.13 dB 6:24 05-Frühlingsstimmen-Walzer
DR8 0.00 dB -9.40 dB 3:05 06-Unter Donner und Blitz
DR7 0.00 dB -10.63 dB 9:55 07-Kaiserwalzer
DR8 0.00 dB -10.37 dB 2:34 08-Eljen a Magyar
DR6 0.00 dB -9.13 dB 2:38 09-Radetzky-Marsch
--------------------------------------------------------------------------------

Number of tracks: 9
Official DR value: DR8

Samplerate: 44100 Hz
Channels: 2
Bits per sample: 16
Bitrate: 859 kbps
Codec: FLAC
================================================================================



CD Info:

James Last - Classics Up To Date Vol. 9

Label: Polydor
Catalog#: 557 842-2
Format: CD, Album, Reissue, Remastered
Country: Germany
Released: 1980, 1998
Genre: Pop, Classical
Style: Easy Listening, Instrumental, Waltz

Tracklist:

1 Rosen aus dem Süden 6:40
2 Leichtes Blut 2:42
3 G'schichten aus dem Wienerwald 11:31
4 Annen-Polka 4:10
5 Frühlingsstimmen-Walzer 6:24
6 Unter Donner und Blitz 3:05
7 Kaiserwalzer 9:55
8 Eljen a Magyar 2:34
9 Radetzky-Marsch 2:38

Artist Biography by Stephen Thomas Erlewine

James Last is a German big band leader with a large fan base in Europe, although he has never had a comparable following in the United States. Last's trademark is arranging pop hits in a big-band style; his series of "party albums" is equally well-known. Over the course of his career, he has sold well over 50 million albums.

Last learned how to play piano as child, switching to bass as a teenager. He joined Hans-Gunther Oesterreich's Radio Bremen Dance Orchestra in 1946, when he was 17 years old. In 1948, he became the leader of the Becker-Last Ensemble, which performed for seven years. During that time, he was voted as the best bassist in the country by a German jazz poll for three consecutive years, from 1950-1952. After the disbandment of the Becker-Last Ensemble, he became the in-house arranger for Polydor Records, as well as for a number of European radio stations. For the next decade, he helped arrange hits for artists like Helmut Zacharias and Caterina Valente.

Last released his first album, Non-Stop Dancing, in 1965. The record of brief renditions of popular songs, all tied together by an insistent dance beat and joyous crowd noises. It was a hit and helped make him a major European star. Over the next two decades, Last released over 50 records, including several more volumes of Non-Stop Dancing. On these records, he varied his formula by adding different songs from different countries and genres, as well as guest performers like Richard Clayderman and Astrud Gilberto.

Though his concerts and albums were consistently successful -- especially in England, where he had 52 hit albums between 1967-1986, which made him second to Elvis Presley in terms of number of charting records -- he only had one hit single with "The Seduction," the theme from American Gigolo (1980). ~allmusicguide



________________

NITROFLARE

Music Pt. 1 | | Music Pt. 2

Artwork

________________


Hop Hop Classics | Dr Who Classics | Pop Classics Mix | The Best Classics Ever | The Best Classics Ever | Hed Kandi Classics | The Simpson Classics | Anjunabeats Classics 01 | Snk Arcade Classics 1 Psp | 1 Trance Classics
James Last - Classics Up To Date Vol. 9 (1980 reissue 1998 Polydor # 557 842-2) Torrent Download with keygen, crack, serial, dvdrip, hdrip, HD, 720p, 1024p, 2016, 2015