Jerry Lee Lewis - Whos Gonna Play This Old Piano (1972) & Sometimes A Memory Aint Enough (1973) 2015 BGO Records Remaster

New Download Links
Speed
 kbps
 kbps
 kbps

Jerry Lee Lewis - Who's Gonna Play This Old Piano (1972) & Sometimes A Memory Ain't Enough (1973) {2015 BGO Records Remaster}
EAC rip (secure mode) | FLAC (tracks)+CUE+LOG -> 430 Mb | MP3 @320 -> 156 Mb
Full Artwork @ 300 dpi (jpg) -> 33 Mb | 5% repair rar
漏 2015 Mercury / BGO Records | BGOCD1174
Country / Rock'n'Roll / Honky Tonk

Two Mercury label country albums dating from 1972 and 1973. Both albums reached the Top 10 US Country chart, spawning the hits 'No More Hanging On', 'Sometimes A Memory Ain't Enough', 'I'm Left, You're Right, She's Gone' and 'Who's Gonna Play This Old Piano'. With his new biography getting rave reviews, Jerry Lee's profile is as huge as ever. Digitally remastered and slipcased, and with new notes by Andrew McRae.


Another collection of work from 鈥榯he killer鈥? Jerry Lee Lewis; this time we have two albums from his Mercury catalogue from the early 1970s (1972, and 1973 respectively) during his comeback country years. Jerry Lee鈥檚 selection of material is on paper good, not least due to him calling on the work of Harlan Howard, Dallas Frazier & Owens, Foster & Rice, Billy Joe Shaver, Paul Craft and the likes of Ray Griff (鈥淲ho鈥檚 Gonna Play This Old Piano鈥? 鈥淭he Morning After Baby Let Me Down鈥?.

Complimented by Andrew McRae鈥檚 copious liner notes, where he underlines my sentiments more than once on how Jerry Lee鈥檚 vocals are doused in over use of strings, as a result his cutting edge, and unique phrasing doesn鈥檛 have the impact hoped. But it isn鈥檛 all doom and gloom, there are occasions he cuts through this. As on gospel piece 鈥淲all Around Heaven鈥?(written by Carmon Holland, Jerry and long time friend, Carl Harrelson), easy paced shuffle 鈥淏ottom Dollar鈥?and the flowing 鈥淣o Traffic Out Of Abilene鈥?(Jimmy Webb) as he speaks of standing at the side of the road with his thumb stuck out, and few takers on the highway to help him out. Others of note include 鈥淪ometimes A Memory Ain鈥檛 Enough鈥? Shavers鈥?brilliant 鈥淩ide Me Down Easy鈥?(as covered by Johnny Rodriguez, Bobby Bare and others), and to a degree 鈥淲hat My Woman Can鈥檛 Do鈥? if only Lewis was allowed to show off some real arrogant swagger and it would be a great recording! As for the remainder, 鈥淚鈥檓 Left, You鈥檙e Right鈥?(Mark Vickery) and 鈥淚 Think I Need To Pray鈥?as he speaks of becoming lost, and looking for redemption for the wrongs he鈥檚 done the benchmark is lifted. While Griff鈥檚 鈥淭he Morning After Baby Let Me Down鈥?has all the right ingredients for the Killer to mop up, his performance though good it lacks pep! It is like he might have been singing, and playing but his mind was elsewhere as he made these albums. From accounts known, and problems he was having, as was pretty much was the case with ol' Jerry Lee for a two or more decades as one marriage, divorce and tragedy took place in his life.



tracklist:
Who's Gonna Play This Old Piano... (Think About It Darlin') (1972)

01. Who's Gonna Play This Old Piano
02. She's Reachin' For My Mind
03. Too Many Rivers
04. We Both Know Which One Of Us Was Wrong
05. Wall Around Heaven
06. No More Hanging On
07. Think About It Darlin'
08. Bottom Dollar
09. No Traffic Out Of Abilene
10. Parting Is Such Sweet Sorrow
11. The Mercy Of A Letter

Sometimes A Memory Ain't Enough (1973)
12. Sometimes A Memory Ain't Enough
13. Ride Me Down Easy
14. Mama's Hands
15. What My Woman Can't Do
16. My Cricket And Me
17. I'm Left, You're Right, She's Gone
18. Honky Tonk Wine
19. Falling To The Bottom
20. I Think I Need To Pray
21. The Morning After Baby Let Me Down
22. Keep Me From Blowing Away

EAC log
Exact Audio Copy V1.0 beta 6 from 9. April 2015

EAC extraction logfile from 19. April 2015, 20:13

Jerry Lee Lewis / Who's Gonna Play This Old Piano... (Think About It Darling) & Sometimes A Memory Ain't Enough

Used drive : TSSTcorpCDDVDW SH-224BB Adapter: 1 ID: 0

Read mode : Secure
Utilize accurate stream : Yes
Defeat audio cache : Yes
Make use of C2 pointers : No

Read offset correction : 6
Overread into Lead-In and Lead-Out : No
Fill up missing offset samples with silence : Yes
Delete leading and trailing silent blocks : No
Null samples used in CRC calculations : Yes
Used interface : Native Win32 interface for Win NT & 2000
Gap handling : Appended to previous track

Used output format : User Defined Encoder
Selected bitrate : 128 kBit/s
Quality : High
Add ID3 tag : No
Command line compressor : C:Program Files (x86)Exact Audio CopyFlacflac.exe
Additional command line options : -8 -V -T "ARTIST=%artist%" -T "TITLE=%title%" -T "ALBUM=%albumtitle%" -T "DATE=%year%" -T "TRACKNUMBER=%tracknr%" -T "TOTALTRACKS=%numtracks%" -T "GENRE=%genre%" -T "ALBUMARTIST=%albumartist%" -T "ALBUM ARTIST=%albumartist%" -T "COMMENT=EAC Secure Mode, Test & Copy, AccurateRip, FLAC -8" %source% TOC of the extracted CD

Track | Start | Length | Start sector | End sector
---------------------------------------------------------
1 | 0:00.00 | 3:21.59 | 0 | 15133
2 | 3:21.59 | 2:41.06 | 15134 | 27214
3 | 6:02.65 | 3:02.29 | 27215 | 40893
4 | 9:05.19 | 3:37.69 | 40894 | 57237
5 | 12:43.13 | 3:08.74 | 57238 | 71411
6 | 15:52.12 | 3:15.23 | 71412 | 86059
7 | 19:07.35 | 2:34.22 | 86060 | 97631
8 | 21:41.57 | 3:02.58 | 97632 | 111339
9 | 24:44.40 | 2:46.67 | 111340 | 123856
10 | 27:31.32 | 3:01.58 | 123857 | 137489
11 | 30:33.15 | 3:32.65 | 137490 | 153454
12 | 34:06.05 | 2:56.36 | 153455 | 166690
13 | 37:02.41 | 2:50.50 | 166691 | 179490
14 | 39:53.16 | 3:46.07 | 179491 | 196447
15 | 43:39.23 | 2:29.03 | 196448 | 207625
16 | 46:08.26 | 2:11.27 | 207626 | 217477
17 | 48:19.53 | 2:21.00 | 217478 | 228052
18 | 50:40.53 | 4:37.48 | 228053 | 248875
19 | 55:18.26 | 2:38.32 | 248876 | 260757
20 | 57:56.58 | 2:45.65 | 260758 | 273197
21 | 60:42.48 | 3:23.66 | 273198 | 288488
22 | 64:06.39 | 2:37.63 | 288489 | 300326 Track 1

Filename C:Jerry Lee Lewis - Who's Gonna Play This Old Piano (1972) & Sometimes A Memory Ain't Enough (1973) [FLAC] (2on1 2015)1 - Who's Gonna Play This Old Piano.wav

Pre-gap length 0:00:02.00

Peak level 90.0 %
Extraction speed 1.7 X
Track quality 100.0 %
Test CRC F05AA676
Copy CRC F05AA676
Track not present in AccurateRip database
Copy OK

Track 2

Filename C:Jerry Lee Lewis - Who's Gonna Play This Old Piano (1972) & Sometimes A Memory Ain't Enough (1973) [FLAC] (2on1 2015)2 - She's Reachin' For My Mind.wav

Pre-gap length 0:00:02.44

Peak level 100.0 %
Extraction speed 1.7 X
Track quality 100.0 %
Test CRC A0507E95
Copy CRC A0507E95
Track not present in AccurateRip database
Copy OK

Track 3

Filename C:Jerry Lee Lewis - Who's Gonna Play This Old Piano (1972) & Sometimes A Memory Ain't Enough (1973) [FLAC] (2on1 2015)3 - Too Many Rivers.wav

Pre-gap length 0:00:03.12

Peak level 100.0 %
Extraction speed 1.9 X
Track quality 100.0 %
Test CRC 10B2A216
Copy CRC 10B2A216
Track not present in AccurateRip database
Copy OK

Track 4

Filename C:Jerry Lee Lewis - Who's Gonna Play This Old Piano (1972) & Sometimes A Memory Ain't Enough (1973) [FLAC] (2on1 2015)4 - We Both Know Which One Of Us Was Wrong.wav

Pre-gap length 0:00:03.48

Peak level 100.0 %
Extraction speed 2.1 X
Track quality 100.0 %
Test CRC 2D4A9274
Copy CRC 2D4A9274
Track not present in AccurateRip database
Copy OK

Track 5

Filename C:Jerry Lee Lewis - Who's Gonna Play This Old Piano (1972) & Sometimes A Memory Ain't Enough (1973) [FLAC] (2on1 2015)5 - Wall Around Heaven.wav

Pre-gap length 0:00:03.46

Peak level 100.0 %
Extraction speed 2.2 X
Track quality 100.0 %
Test CRC 5A21410B
Copy CRC 5A21410B
Track not present in AccurateRip database
Copy OK

Track 6

Filename C:Jerry Lee Lewis - Who's Gonna Play This Old Piano (1972) & Sometimes A Memory Ain't Enough (1973) [FLAC] (2on1 2015)6 - No More Hanging On.wav

Pre-gap length 0:00:03.36

Peak level 100.0 %
Extraction speed 2.3 X
Track quality 100.0 %
Test CRC BD2B5B5C
Copy CRC BD2B5B5C
Track not present in AccurateRip database
Copy OK

Track 7

Filename C:Jerry Lee Lewis - Who's Gonna Play This Old Piano (1972) & Sometimes A Memory Ain't Enough (1973) [FLAC] (2on1 2015)7 - Think About It Darlin'.wav

Pre-gap length 0:00:01.36

Peak level 98.9 %
Extraction speed 2.3 X
Track quality 100.0 %
Test CRC 73DBD097
Copy CRC 73DBD097
Track not present in AccurateRip database
Copy OK

Track 8

Filename C:Jerry Lee Lewis - Who's Gonna Play This Old Piano (1972) & Sometimes A Memory Ain't Enough (1973) [FLAC] (2on1 2015)8 - Bottom Dollar.wav

Pre-gap length 0:00:02.60

Peak level 100.0 %
Extraction speed 2.4 X
Track quality 100.0 %
Test CRC 1B4A62FF
Copy CRC 1B4A62FF
Track not present in AccurateRip database
Copy OK

Track 9

Filename C:Jerry Lee Lewis - Who's Gonna Play This Old Piano (1972) & Sometimes A Memory Ain't Enough (1973) [FLAC] (2on1 2015)9 - No Traffic Out Of Abilene.wav

Pre-gap length 0:00:02.29

Peak level 94.4 %
Extraction speed 2.5 X
Track quality 100.0 %
Test CRC F8295368
Copy CRC F8295368
Track not present in AccurateRip database
Copy OK

Track 10

Filename C:Jerry Lee Lewis - Who's Gonna Play This Old Piano (1972) & Sometimes A Memory Ain't Enough (1973) [FLAC] (2on1 2015)10 - Parting Is Such Sweet Sorrow.wav

Pre-gap length 0:00:02.49

Peak level 100.0 %
Extraction speed 2.6 X
Track quality 100.0 %
Test CRC F6DFA35B
Copy CRC F6DFA35B
Track not present in AccurateRip database
Copy OK

Track 11

Filename C:Jerry Lee Lewis - Who's Gonna Play This Old Piano (1972) & Sometimes A Memory Ain't Enough (1973) [FLAC] (2on1 2015)11 - The Mercy Of A Letter.wav

Pre-gap length 0:00:02.61

Peak level 100.0 %
Extraction speed 2.8 X
Track quality 100.0 %
Test CRC 9FEF5997
Copy CRC 9FEF5997
Track not present in AccurateRip database
Copy OK

Track 12

Filename C:Jerry Lee Lewis - Who's Gonna Play This Old Piano (1972) & Sometimes A Memory Ain't Enough (1973) [FLAC] (2on1 2015)12 - Sometimes A Memory Ain't Enough.wav

Pre-gap length 0:00:01.47

Peak level 100.0 %
Extraction speed 2.8 X
Track quality 100.0 %
Test CRC 5B8293F2
Copy CRC 5B8293F2
Track not present in AccurateRip database
Copy OK

Track 13

Filename C:Jerry Lee Lewis - Who's Gonna Play This Old Piano (1972) & Sometimes A Memory Ain't Enough (1973) [FLAC] (2on1 2015)13 - Ride Me Down Easy.wav

Pre-gap length 0:00:01.73

Peak level 100.0 %
Extraction speed 2.0 X
Track quality 99.9 %
Test CRC 723074BE
Copy CRC 723074BE
Track not present in AccurateRip database
Copy OK

Track 14

Filename C:Jerry Lee Lewis - Who's Gonna Play This Old Piano (1972) & Sometimes A Memory Ain't Enough (1973) [FLAC] (2on1 2015)14 - Mama's Hands.wav

Pre-gap length 0:00:02.71

Peak level 100.0 %
Extraction speed 2.3 X
Track quality 99.9 %
Test CRC B226A41D
Copy CRC B226A41D
Track not present in AccurateRip database
Copy OK

Track 15

Filename C:Jerry Lee Lewis - Who's Gonna Play This Old Piano (1972) & Sometimes A Memory Ain't Enough (1973) [FLAC] (2on1 2015)15 - What My Woman Can't Do.wav

Pre-gap length 0:00:02.62

Peak level 100.0 %
Extraction speed 2.0 X
Track quality 99.9 %
Test CRC C96C206C
Copy CRC C96C206C
Track not present in AccurateRip database
Copy OK

Track 16

Filename C:Jerry Lee Lewis - Who's Gonna Play This Old Piano (1972) & Sometimes A Memory Ain't Enough (1973) [FLAC] (2on1 2015)16 - My Cricket And Me.wav

Pre-gap length 0:00:03.24

Peak level 100.0 %
Extraction speed 2.9 X
Track quality 100.0 %
Test CRC 7DAB78D7
Copy CRC 7DAB78D7
Track not present in AccurateRip database
Copy OK

Track 17

Filename C:Jerry Lee Lewis - Who's Gonna Play This Old Piano (1972) & Sometimes A Memory Ain't Enough (1973) [FLAC] (2on1 2015)17 - I'm Left, You're Right, She's Gone.wav

Pre-gap length 0:00:03.10

Peak level 100.0 %
Extraction speed 3.0 X
Track quality 100.0 %
Test CRC F49722D8
Copy CRC F49722D8
Track not present in AccurateRip database
Copy OK

Track 18

Filename C:Jerry Lee Lewis - Who's Gonna Play This Old Piano (1972) & Sometimes A Memory Ain't Enough (1973) [FLAC] (2on1 2015)18 - Honky Tonk Wine.wav

Pre-gap length 0:00:02.70

Peak level 89.1 %
Extraction speed 3.4 X
Track quality 100.0 %
Test CRC C9F920E7
Copy CRC C9F920E7
Track not present in AccurateRip database
Copy OK

Track 19

Filename C:Jerry Lee Lewis - Who's Gonna Play This Old Piano (1972) & Sometimes A Memory Ain't Enough (1973) [FLAC] (2on1 2015)19 - Falling To The Bottom.wav

Pre-gap length 0:00:03.22

Peak level 100.0 %
Extraction speed 3.2 X
Track quality 100.0 %
Test CRC 7A0497A4
Copy CRC 7A0497A4
Track not present in AccurateRip database
Copy OK

Track 20

Filename C:Jerry Lee Lewis - Who's Gonna Play This Old Piano (1972) & Sometimes A Memory Ain't Enough (1973) [FLAC] (2on1 2015)20 - I Think I Need To Pray.wav

Pre-gap length 0:00:03.47

Peak level 85.2 %
Extraction speed 3.3 X
Track quality 100.0 %
Test CRC 3385FF57
Copy CRC 3385FF57
Track not present in AccurateRip database
Copy OK

Track 21

Filename C:Jerry Lee Lewis - Who's Gonna Play This Old Piano (1972) & Sometimes A Memory Ain't Enough (1973) [FLAC] (2on1 2015)21 - The Morning After Baby Let Me Down.wav

Pre-gap length 0:00:03.09

Peak level 94.4 %
Extraction speed 3.5 X
Track quality 100.0 %
Test CRC 36086CD3
Copy CRC 36086CD3
Track not present in AccurateRip database
Copy OK

Track 22

Filename C:Jerry Lee Lewis - Who's Gonna Play This Old Piano (1972) & Sometimes A Memory Ain't Enough (1973) [FLAC] (2on1 2015)22 - Keep Me From Blowing Away.wav

Pre-gap length 0:00:03.06

Peak level 100.0 %
Extraction speed 3.4 X
Track quality 100.0 %
Test CRC A1F79519
Copy CRC A1F79519
Track not present in AccurateRip database
Copy OK None of the tracks are present in the AccurateRip database

No errors occurred

End of status report

---- CUETools DB Plugin V2.1.6

[CTDB TOCID: fHqzCIrSNCSd6LirGOkJEbXe.K8-] found
Submit result: already submitted
Track | CTDB Status
1 | (1/1) Accurately ripped
2 | (1/1) Accurately ripped
3 | (1/1) Accurately ripped
4 | (1/1) Accurately ripped
5 | (1/1) Accurately ripped
6 | (1/1) Accurately ripped
7 | (1/1) Accurately ripped
8 | (1/1) Accurately ripped
9 | (1/1) Accurately ripped
10 | (1/1) Accurately ripped
11 | (1/1) Accurately ripped
12 | (1/1) Accurately ripped
13 | (1/1) Accurately ripped
14 | (1/1) Accurately ripped
15 | (1/1) Accurately ripped
16 | (1/1) Accurately ripped
17 | (1/1) Accurately ripped
18 | (1/1) Accurately ripped
19 | (1/1) Accurately ripped
20 | (1/1) Accurately ripped
21 | (1/1) Accurately ripped
22 | (1/1) Accurately ripped ==== Log checksum 5C2BDC5CFAD7C489EF91B478636DEF50EFA5438684F83920E891AE164B29360E ====




All thanks goes to the original releaser!

NEXT -> More Jerry Lee Lewis...



Jerry Lee Lewis All Killer | Jerry Lewis Bellboy | The Nutty Professor Jerry Lewis | Jerry Lee Lewis Great Balls Of Fire | How To Play Piano | Learn To Play Gospel Piano Dvd 2 | Ram Records Annual 2015 | Love Piano 2015 | Nicki Piano Grand Piano | Aint Nobody Felix
Jerry Lee Lewis - Whos Gonna Play This Old Piano (1972) & Sometimes A Memory Aint Enough (1973) 2015 BGO Records Remaster Torrent Download with keygen, crack, serial, dvdrip, hdrip, HD, 720p, 1024p, 2016, 2015