Janis Joplin - The Essential Janis Joplin Limited Edition 3.0 (2008)

New Download Links
Speed
 kbps
 kbps
 kbps

Janis Joplin - The Essential Janis Joplin [Limited Edition 3.0] (2008)
3CD | EAC-Rip | WAVPack-image +cue +log +SCANS | August 26, 2008 | 1 Gb
Genre: Blues, Rock | RAR 3% Rec. | Label: Sony | Hotfile, Turbobit, Sharingmatrix, Fileserve

This three-disc set breaks from the usual pattern of Legacy's ESSENTIAL series by presenting a large number of concert performances, in this case, focusing more Janis Joplin's tremendous power as a live vocalist than her comparatively sedate studio appearances. Other than a handful of tracks (the immortal "Down on Me" from BIG BROTHER & THE HOLDING COMPANY, three from CHEAP THRILLS, and others), the entirety of the first disc consists of live recordings. These include two previously unreleased tunes ("Kozmic Blues" and the Bee Gees' "To Love Somebody," a la Wilson Pickett) from Joplin's solo debut at Woodstock. The second disc contains more live tracks, plus the best tunes from Joplin's two solo albums and the various outtakes that were released after her death (like the scorching performance of "Tell Mama" that was previously available only as a bonus track on PEARL), providing a well-rounded overview of Joplin's brief career.


Tracklist:

Disc 1
1. Down On Me
2. Coo Coo
3. Women Is Losers
4. Bye, Bye Baby
5. Ball And Chain [Live]
6. Roadblock
7. Piece Of My Heart
8. Misery'n
9. I Need A Man To Love
10. Summertime
11. Flower In The Sun [Live]
12. Farewell Song [Live]
13. Raise Your Hand [Live]
14. To Love Somebody [Live]*
15. Kozmic Blues [Live]*

* - Previously unissued

EAC LOG CD1
Exact Audio Copy V0.99 prebeta 4 from 23. January 2008

Отчёт EAC об извлечении, выполненном 18. июля 2010, 18:50

Janis Joplin / The Essential Disc 1

Дисковод: Optiarc DVD RW AD-7200A Adapter: 0 ID: 1

Режим чтения : Достоверность
Использование точного потока : Да
Отключение кэша аудио : Да
Использование указателей C2 : Нет

Коррекция смещения при чтении : 48
Способность читать области Lead-in и Lead-out : Нет
Заполнение пропущенных сэмплов тишиной : Да
Удаление блоков с тишиной в начале и конце : Нет
При вычислениях CRC использовались нулевые сэмплы : Да
Интерфейс : Встроенный Win32-интерфейс для Win NT/2000

Выходной формат : Пользовательский кодировщик
Выбранный битрейт : 128 kBit/s
Качество : Высокий
Добавление ID3-тэга : Нет
Утилита сжатия : C:Program FilesExact Audio Copywavpack.exe
Дополнительные параметры : -w "Artist=%a" -w "Title=%t" -w "Album=%g" -w "Year=%y" -w "Track=%n" -w "Genre=%m" -h %s %d

TOC извлечённого CD

Трек | Старт | Длительность | Начальный сектор | Конечный сектор
---------------------------------------------------------------------
1 | 0:00.00 | 2:06.10 | 0 | 9459
2 | 2:06.10 | 1:58.12 | 9460 | 18321
3 | 4:04.22 | 2:04.35 | 18322 | 27656
4 | 6:08.57 | 2:38.48 | 27657 | 39554
5 | 8:47.30 | 8:04.37 | 39555 | 75891
6 | 16:51.67 | 5:32.35 | 75892 | 100826
7 | 22:24.27 | 4:15.35 | 100827 | 119986
8 | 26:39.62 | 4:10.13 | 119987 | 138749
9 | 30:50.00 | 4:53.35 | 138750 | 160759
10 | 35:43.35 | 3:59.57 | 160760 | 178741
11 | 39:43.17 | 3:11.35 | 178742 | 193101
12 | 42:54.52 | 4:58.38 | 193102 | 215489
13 | 47:53.15 | 2:27.55 | 215490 | 226569
14 | 50:20.70 | 5:14.42 | 226570 | 250161
15 | 55:35.37 | 5:05.13 | 250162 | 273049

Характеристики диапазона извлечения и сообщения об ошибках

Выбранный диапазон

Имя файла Y:ReleasesJanis JoplinThe Essential (2003)The Essential (2003)Janis Joplin - The Essential Disc 1.wav

Пиковый уровень 100.0 %
Качество диапазона 100.0 %
CRC теста 69D45A0B
CRC копии 69D45A0B
Копирование... OK

Ошибок не произошло


Disc 2
1. Try (Just A Little Bit Harder)
2. Maybe
3. One Good Man
4. Little Girl Blue
5. Work Me, Lord
6. Tell Mama [Live]
7. Move Over
8. Cry Baby
9. A Woman Left Lonely
10. Half Moon
11. My Baby
12. Me And Bobby McGee
13. Mercedes Benz
14. Get It While You Can

EAC LOG CD2
Exact Audio Copy V0.99 prebeta 4 from 23. January 2008

Отчёт EAC об извлечении, выполненном 18. июля 2010, 19:37

Janis Joplin / The Essential Janis Joplin (Disc 2)

Дисковод: Optiarc DVD RW AD-7200A Adapter: 0 ID: 1

Режим чтения : Достоверность
Использование точного потока : Да
Отключение кэша аудио : Да
Использование указателей C2 : Нет

Коррекция смещения при чтении : 48
Способность читать области Lead-in и Lead-out : Нет
Заполнение пропущенных сэмплов тишиной : Да
Удаление блоков с тишиной в начале и конце : Нет
При вычислениях CRC использовались нулевые сэмплы : Да
Интерфейс : Встроенный Win32-интерфейс для Win NT/2000

Выходной формат : Пользовательский кодировщик
Выбранный битрейт : 128 kBit/s
Качество : Высокий
Добавление ID3-тэга : Нет
Утилита сжатия : C:Program FilesExact Audio Copywavpack.exe
Дополнительные параметры : -w "Artist=%a" -w "Title=%t" -w "Album=%g" -w "Year=%y" -w "Track=%n" -w "Genre=%m" -h %s %d

TOC извлечённого CD

Трек | Старт | Длительность | Начальный сектор | Конечный сектор
---------------------------------------------------------------------
1 | 0:00.00 | 3:57.07 | 0 | 17781
2 | 3:57.07 | 3:39.68 | 17782 | 34274
3 | 7:37.00 | 4:11.02 | 34275 | 53101
4 | 11:48.02 | 3:50.23 | 53102 | 70374
5 | 15:38.25 | 6:37.20 | 70375 | 100169
6 | 22:15.45 | 6:39.22 | 100170 | 130116
7 | 28:54.67 | 3:41.53 | 130117 | 146744
8 | 32:36.45 | 3:57.22 | 146745 | 164541
9 | 36:33.67 | 3:28.55 | 164542 | 180196
10 | 40:02.47 | 3:52.48 | 180197 | 197644
11 | 43:55.20 | 3:44.60 | 197645 | 214504
12 | 47:40.05 | 4:30.47 | 214505 | 234801
13 | 52:10.52 | 1:47.25 | 234802 | 242851
14 | 53:58.02 | 3:16.33 | 242852 | 257584
15 | 57:14.35 | 3:23.17 | 257585 | 272826

Характеристики диапазона извлечения и сообщения об ошибках

Выбранный диапазон

Имя файла Y:ReleasesJanis JoplinThe Essential (2003)The Essential (2003)Janis Joplin - The Essential Janis Joplin (Disc 2).wav

Пиковый уровень 100.0 %
Качество диапазона 100.0 %
CRC теста 1977AEF7
CRC копии 1977AEF7
Копирование... OK

Ошибок не произошло


Disc 3
1. Call On Me
2. Combination Of The Two
3. Turtle Blues
4. Catch Me Daddy [Live]
5. As Good As You've Been To This World
6. Dear Landlord

EAC LOG CD3
Exact Audio Copy V0.99 prebeta 4 from 23. January 2008

Отчёт EAC об извлечении, выполненном 18. июля 2010, 20:01

Janis Joplin / The Essential Janis Joplin (CD3)

Дисковод: Optiarc DVD RW AD-7200A Adapter: 0 ID: 1

Режим чтения : Достоверность
Использование точного потока : Да
Отключение кэша аудио : Да
Использование указателей C2 : Нет

Коррекция смещения при чтении : 48
Способность читать области Lead-in и Lead-out : Нет
Заполнение пропущенных сэмплов тишиной : Да
Удаление блоков с тишиной в начале и конце : Нет
При вычислениях CRC использовались нулевые сэмплы : Да
Интерфейс : Встроенный Win32-интерфейс для Win NT/2000

Выходной формат : Пользовательский кодировщик
Выбранный битрейт : 128 kBit/s
Качество : Высокий
Добавление ID3-тэга : Нет
Утилита сжатия : C:Program FilesExact Audio Copywavpack.exe
Дополнительные параметры : -w "Artist=%a" -w "Title=%t" -w "Album=%g" -w "Year=%y" -w "Track=%n" -w "Genre=%m" -h %s %d

TOC извлечённого CD

Трек | Старт | Длительность | Начальный сектор | Конечный сектор
---------------------------------------------------------------------
1 | 0:00.00 | 2:34.58 | 0 | 11607
2 | 2:34.58 | 5:49.38 | 11608 | 37820
3 | 8:24.21 | 4:22.29 | 37821 | 57499
4 | 12:46.50 | 5:46.52 | 57500 | 83501
5 | 18:33.27 | 5:26.70 | 83502 | 108021
6 | 24:00.22 | 2:31.11 | 108022 | 119357

Характеристики диапазона извлечения и сообщения об ошибках

Выбранный диапазон

Имя файла Y:ReleasesJanis JoplinThe Essential (2003)The Essential (2003)Janis Joplin - The Essential Janis Joplin (Disc 3).wav

Пиковый уровень 100.0 %
Качество диапазона 100.0 %
CRC теста F1426BC7
CRC копии F1426BC7
Копирование... OK

Ошибок не произошло


Download Janis Joplin - The Essential Janis Joplin [Limited Edition 3.0] (2008):


Thanks to the original Publicist "y-soft"


Janis Joplin Pearl Legacy Edition | Janis Joplin 900 | Janis Joplin | Mp3 Janis Joplin | Janis Joplin Greatest | Janis Joplin Anthology | Janis Joplin Blues | Lick Library Janis Joplin | Janis Joplin Kozmic Blues | Janis Joplin Discography Is Safe 1
Janis Joplin - The Essential Janis Joplin Limited Edition 3.0 (2008) Torrent Download with keygen, crack, serial, dvdrip, hdrip, HD, 720p, 1024p, 2016, 2015