Herb Alperts Tijuana Brass - Whipped Cream & Other Delights Re-Whipped (2006)

New Download Links
Speed
 kbps
 kbps
 kbps

Herb Alpert's Tijuana Brass - Whipped Cream & Other Delights Re-Whipped (2006)
EAC Secure Rip | FLAC (Image + Cue + Log) - 286 MB | Complete Scans (Jpeg 600 dpi) - 69.1 MB | MP3 (CBR320 Kbps) - 117 MB
Jazz, Electronic | Shout Factory | DK 97641 | 47:06 minutes | 5% WinRar Recovery | Hosted on: FilePost & Uploaded

For the most part, "Rewhipped" is a coolly reverent revisiting that takes its source delights into downtempo/chillout territory. That gives the record a lulling, gentle groove but one that never strays too far from the original material (right down to the cover, which applies the whipped-cream bikini to a new girl). The Dust Brothers' John King takes a shot at "A Taste of Honey," giving it lounge-lizard bounce and Thievery Corporation gets dreamy with "Lemon Tree."

Rewhipped amounts to a pseudo-addition to the original Herb Alpert & the Tijuana Brass catalog. This album of remixes by late-'90s and 2000-era DJs features new trumpet solos by Herb Alpert on seven tracks. All the cuts here appeared on the original 1965 release, Whipped Cream & Other Delights, though not in the same order. Before rolling your eyes, consider this: the music on this set was regarded not only as hip, but as progressive jazz by many back in the day. Producer Anthony Marinelli supervised all the remixes on the project and contributes six of his own -- including the title track with the aid of the band Ozomatli performing with Alpert. Marinelli is also a composer and keyboard player who has composed soundtracks (Man from Elysian Fields, Time Code) and done session work with everyone from Michael Jackson and James Brown to Giorgio Moroder, Lionel Richie, and Supertramp. Other remixes were done by Thievery Corporation, Mocean Worker, John King, Medeski, Martin & Wood, Camara Kambon, and DJ Foosh. Whatever trepidations one might have about Alpert participating in the project, some of the best cuts on the set work best because he's on them -- the title cut (Marinelli) "El Garbanzo" (M,M&W), and "Peanuts" (Marinelli) -- in part because Alpert's gotten a lot funkier in his old age. Other standouts include the ambient dub that is "Lemon Tree" by Thievery Corporation, John King's dub-jazz-exotica redo of "A Taste of Honey" (the original album's smash single), and Mocean Worker's fine rework of "Bittersweet Samba" with killer berimbau samples grafted on. The only cut that really doesn't work is "Butterball," Although Alpert's solo is hip-cool, the song's added beats don't leave enough of the original to appreciate it -- this is a drag, since all the other tracks keep the basic cut to achieve historic continuity. It's a small complaint since it's the final selection here. Certainly the music on Rewhipped has a somewhat limited appeal, and it's hard to think of the folks who bought Whipped Cream when it was released being interested in it now, but who knows? Hardcore dance music fans will find this a curiosity piece at best, but that doesn't mean it's without musical merit. In fact, Rewhipped has as much aesthetic appeal as its predecessor because the music Alpert and his band made in '65 has aged so well. Judging by his contribution here, Alpert certainly has, too -- at 71, the cat is still swingin'. Reviewed by Thom Jurek allmusic.com
EAC Log
Exact Audio Copy V1.0 beta 2 from 29. April 2011

EAC extraction logfile from 4. September 2013, 19:51

Herb Alpert's Tijuana Brass / Whipped Cream & Other Delights Re-Whipped

Used drive : HL-DT-STBD-RE BH14NS40 Adapter: 0 ID: 2

Read mode : Secure
Utilize accurate stream : Yes
Defeat audio cache : Yes
Make use of C2 pointers : No

Read offset correction : 6
Overread into Lead-In and Lead-Out : No
Fill up missing offset samples with silence : Yes
Delete leading and trailing silent blocks : No
Null samples used in CRC calculations : Yes
Used interface : Native Win32 interface for Win NT & 2000

Used output format : User Defined Encoder
Selected bitrate : 1024 kBit/s
Quality : High
Add ID3 tag : No
Command line compressor : C:Program Files (x86)Exact Audio CopyFlacflac.exe
Additional command line options : -V -5 -T "artist=%albumartist%" -T "title=%title%" -T "album=%albumtitle%" -T "date=%year%" -T "genre=%genre%"

-T "tracknumber=%tracknr%" %source% TOC of the extracted CD

Track | Start | Length | Start sector | End sector
---------------------------------------------------------
1 | 0:00.00 | 4:04.62 | 0 | 18361
2 | 4:04.62 | 3:03.70 | 18362 | 32156
3 | 7:08.57 | 4:45.55 | 32157 | 53586
4 | 11:54.37 | 4:23.18 | 53587 | 73329
5 | 16:17.55 | 3:44.50 | 73330 | 90179
6 | 20:02.30 | 3:52.37 | 90180 | 107616
7 | 23:54.67 | 4:02.70 | 107617 | 125836
8 | 27:57.62 | 3:05.43 | 125837 | 139754
9 | 31:03.30 | 3:41.27 | 139755 | 156356
10 | 34:44.57 | 3:14.53 | 156357 | 170959
11 | 37:59.35 | 2:48.67 | 170960 | 183626
12 | 40:48.27 | 6:17.60 | 183627 | 211961 Range status and errors

Selected range

Filename C:EACHerb Alpert's Tijuana Brass - (2006) Whipped Cream & Other Delights Re-WhippedHerb Alpert's Tijuana Brass - Whipped Cream &

Other Delights Re-Whipped.wav

Peak level 99.8 %
Extraction speed 5.9 X
Range quality 100.0 %
Test CRC FC671AD9
Copy CRC FC671AD9
Copy OK

No errors occurred


AccurateRip summary

Track 1 accurately ripped (confidence 12) [AE257E7E] (AR v2)
Track 2 accurately ripped (confidence 13) [5F1DA2BE] (AR v2)
Track 3 accurately ripped (confidence 13) [07461B39] (AR v2)
Track 4 accurately ripped (confidence 13) [D223841D] (AR v2)
Track 5 accurately ripped (confidence 13) [B1116226] (AR v2)
Track 6 accurately ripped (confidence 13) [0E846FE8] (AR v2)
Track 7 accurately ripped (confidence 12) [439EEE0C] (AR v2)
Track 8 accurately ripped (confidence 12) [D13EBE8A] (AR v2)
Track 9 accurately ripped (confidence 12) [22F1F97B] (AR v2)
Track 10 accurately ripped (confidence 12) [91F3CA43] (AR v2)
Track 11 accurately ripped (confidence 12) [1AF780B0] (AR v2)
Track 12 accurately ripped (confidence 12) [E15E9A4D] (AR v2)

All tracks accurately ripped

End of status report

==== Log checksum 5B118DFD1C4FAE685607D35480EE0D594E7FF2C4F0DF56D40BC9E32058A209E4 ====
Track Listing:

01. Whipped Cream (Remixed By Anthony Marinelli Feat. Ozomatli)
02. A Taste Of Honey (Remixed By John King)
03. Green Peppers (Remixed By Anthony Marinelli)
04. Ladyfingers (Remixed By Camara Kambon)
05. Love Potion #9 (Remixed By Anthony Marinelli)
06. Peanuts (Remixed By Anthony Marinelli)
07. Tangerine (Remixed By DJ Foosh & Thomas Foyer)
08. El Garbanzo (Remixed By Medeski Martin & Wood)
09. Lemon Tree (Remixed By Thievery Corporation)
10. Lollipops And Roses (Remixed By Anthony Marinelli)
11. Bittersweet Samba (Remixed By Mocean Worker)
12. Butterball (Remixed By Anthony Marinelli)

Album Released: March 7, 2006
DR Log
foobar2000 1.2.9 / Dynamic Range Meter 1.1.0
log date: 2014-01-05 13:10:49

--------------------------------------------------------------------------------
Analyzed: Herb Alpert's Tijuana Brass / Whipped Cream & Other Delights Re-Whipped
--------------------------------------------------------------------------------

DR Peak RMS Duration Track
--------------------------------------------------------------------------------
DR9 -0.02 dB -10.14 dB 4:05 01-Whipped Cream (Remixed By Anthony Marinelli Feat. Ozomatli)
DR9 -0.01 dB -11.33 dB 3:04 02-A Taste Of Honey (Remixed By John King)
DR9 -0.01 dB -10.40 dB 4:46 03-Green Peppers (Remixed By Anthony Marinelli)
DR8 -0.02 dB -10.94 dB 4:23 04-Ladyfingers (Remixed By Camara Kambon)
DR7 -0.01 dB -7.42 dB 3:45 05-Love Potion #9 (Remixed By Anthony Marinelli)
DR9 -0.02 dB -11.08 dB 3:52 06-Peanuts (Remixed By Anthony Marinelli)
DR9 -0.02 dB -11.38 dB 4:03 07-Tangerine (Remixed By DJ Foosh & Thomas Foyer)
DR9 -0.02 dB -10.40 dB 3:06 08-El Garbanzo (Remixed By Medeski Martin & Wood)
DR8 -0.02 dB -9.81 dB 3:41 09-Lemon Tree (Remixed By Thievery Corporation)
DR6 -0.02 dB -8.57 dB 3:15 10-Lollipops And Roses (Remixed By Anthony Marinelli)
DR7 -0.01 dB -9.19 dB 2:49 11-Bittersweet Samba (Remixed By Mocean Worker)
DR9 -0.02 dB -10.55 dB 6:18 12-Butterball (Remixed By Anthony Marinelli)
--------------------------------------------------------------------------------

Number of tracks: 12
Official DR value: DR8

Samplerate: 44100 Hz
Channels: 2
Bits per sample: 16
Bitrate: 809 kbps
Codec: FLAC
================================================================================



5% WinRar Recovery
If you experience any problems or broken links, PLEASE SEND PM to flac jacket.



Whipped Cream | Riley Shy Whipped | Mona Wales Whipped | Katrina Zova Whipped | The Tijuana Brass | Wowgirls Girly Delights | Tijuana Moods | Charles Mingus Tijuana Moods | The Rat Herb | The Herb Handbook
Herb Alperts Tijuana Brass - Whipped Cream & Other Delights Re-Whipped (2006) Torrent Download with keygen, crack, serial, dvdrip, hdrip, HD, 720p, 1024p, 2016, 2015