Joe Cocker - Greatest Love Songs (2003)

New Download Links
Speed
 kbps
 kbps
 kbps

Joe Cocker - Greatest Love Songs (2003)
1CD | EAC-Rip | FLAC-image +cue +log +SCANS | January 28, 2003 | 470,51 Mb
Genre: Rock, Blues | RAR 3% Rec. | Label: Hip-O Records
Hotfile, Turbobit, Sharingmatrix, Fileserve


At once rousing and intimate, Joe Cocker's Greatest Love Songs gathers some of his most romantic performances from the '60s through the '90s, including the classic "You Are So Beautiful" and his hit duet with Jennifer Warnes, "Up Where We Belong." Covers of rock love songs like "Just Like a Woman," "Something," and "Darling Be Home Soon" dominate the album, and Cocker's warm, soulful delivery makes each of these tracks a highlight. "That's the Way Her Love Is," "Heart Full of Rain," and some of the other more recent performances on the collection suffer from over-production and don't quite equal the spark of Cocker's previous material; fortunately, Greatest Love Songs features a fair portion of his earlier work, with songs like "The Moon Is a Harsh Mistress," "Performance," and "If I Love You" also among the collection's standouts. Spanning smooth ballads and fiery declarations of love, Greatest Love Songs is a cohesive but nuanced compilation of Cocker's romantic side.



Tracklist:

1.Just Like A Woman
2.Something
3.Darling Be Home Soon
4.The Moon Is A Harsh Mistress
5.You Are So Beautiful
6.Performance
7.If I Love You
8.The Jealous Kind
9.A Song For You
10.Many Rivers To Cross
11.Just Like Always
12.Up Where We Belong - (featuring Jennifer Warnes)
13.Sorry Seems To Be The Hardest Word
14.Have A Little Faith In Me
15.Out Of The Blue
16.Heart Full Of Rain
17.Tonight
18.That's The Way Her Love Is

EAC LOG
Exact Audio Copy V0.99 prebeta 4 from 23. January 2008

Отчёт EAC об извлечении, выполненном 25. ноября 2008, 19:08

Joe Cocker / Greatest Love Sngs

Дисковод: PIONEER DVD-RW DVR-110D Adapter: 1 ID: 0

Режим чтения : Достоверность
Использование точного потока : Да
Отключение кэша аудио : Да
Использование указателей C2 : Нет

Коррекция смещения при чтении : 48
Способность читать области Lead-in и Lead-out : Нет
Заполнение пропущенных сэмплов тишиной : Да
Удаление блоков с тишиной в начале и конце : Нет
При вычислениях CRC использовались нулевые сэмплы : Да
Интерфейс : Встроенный Win32-интерфейс для Win NT/2000

Выходной формат : Пользовательский кодировщик
Выбранный битрейт : 512 kBit/s
Качество : Высокий
Добавление ID3-тэга : Нет
Утилита сжатия : C:Program FilesFLACFLAC frontend.exe
Дополнительные параметры : -8-V-T "ARTIST=%a" -T "TITLE=%t" -T "ALBUM=%g" -T "DATE=%y" -T "TRACKNUMBER=%n" -T "GENRE=%m" -T "COMMENT=EACFLAC-8"%s

TOC извлечённого CD

Трек | Старт | Длительность | Начальный сектор | Конечный сектор
---------------------------------------------------------------------
1 | 0:00.00 | 5:18.02 | 0 | 23851
2 | 5:18.02 | 3:34.24 | 23852 | 39925
3 | 8:52.26 | 4:42.37 | 39926 | 61112
4 | 13:34.63 | 3:30.50 | 61113 | 76912
5 | 17:05.38 | 2:44.25 | 76913 | 89237
6 | 19:49.63 | 4:39.25 | 89238 | 110187
7 | 24:29.13 | 3:54.17 | 110188 | 127754
8 | 28:23.30 | 3:50.00 | 127755 | 145004
9 | 32:13.30 | 6:25.50 | 145005 | 173929
10 | 38:39.05 | 3:45.00 | 173930 | 190804
11 | 42:24.05 | 3:26.38 | 190805 | 206292
12 | 45:50.43 | 3:53.74 | 206293 | 223841
13 | 49:44.42 | 3:59.00 | 223842 | 241766
14 | 53:43.42 | 4:41.38 | 241767 | 262879
15 | 58:25.05 | 3:47.37 | 262880 | 279941
16 | 62:12.42 | 4:49.26 | 279942 | 301642
17 | 67:01.68 | 4:48.39 | 301643 | 323281
18 | 71:50.32 | 2:43.43 | 323282 | 335549

Характеристики диапазона извлечения и сообщения об ошибках

Выбранный диапазон

Имя файла C:мои раздачиCockerJoe Cocker - Greatest Love Songs.wav

Пиковый уровень 100.0 %
Качество диапазона 100.0 %
CRC теста 5BFEE1A8
CRC копии 5BFEE1A8
Копирование... OK

Ошибок не произошло

Конец отчёта




Download Joe Cocker - Greatest Love Songs (2003):


Fileserve.com:
fileserve.com

Turbobit.net:
turbobit.net

Hotfile.com
hotfile.com Part 1
hotfile.com Part 2

Sharingmatrix.com:
sharingmatrix.com Part 1
sharingmatrix.com Part 2

Pass: avaxhome.ws


Thanks to the original Publicist "Сегель"


Greatest Love Songs Of All Time | 100 Greatest Love Songs 2015 | Country Ballads The Greatest Country Love Songs In The World Ever | Top 250 Of The Greatest Hip Hop And Rap Songs | 500 Greatest Songs Of All | All Greatest Songs | Vh1 100 Greatest Songs | All Time Greatest 100 Songs | The Greatest Songs Of The Eighties | The 500 Greatest Songs Of All Time
Joe Cocker - Greatest Love Songs (2003) Torrent Download with keygen, crack, serial, dvdrip, hdrip, HD, 720p, 1024p, 2016, 2015