The Shadows - Memories 36 Guitar Moods (2005) 2CD re-up

New Download Links
Speed
 kbps
 kbps
 kbps

The Shadows - Memories 36 Guitar Moods (2005) 2 CD
EAC | FLAC | Image (Cue&Log) ~ 964 Mb (incl 5%) | Complete Scans included | Time: 02:28:10
Genre: Instrumental, Instrumental Pop Rock | Label: Music Club Deluxe | # MCDLX014

The Shadows are easily the most popular and influential British instrumental group of all time. Their career started in the late 50's as Cliff Richard's backing band and they consistently hit the singles charts well into the 80's. Lead guitarist Hank Marvin is cited by many modern pickers as a major influence. Throughout the latter part of their career, they released many instrumental covers and interpretations of classic themes. This 2 disc set brings together many of those recordings Including the two top 10 hits 'Don't Cry For Me Argentina' & 'Theme From The Deer Hunter (Cavatina)' & the top 50 hit 'The Third Man'.


Biography
Official Website
Wiki

Tracklist:


CD1:

01. Take My Breath Away
02. Love Changes Everything
03. Albatross
04. Moonlight Shadow
05. One Day I'll Fly Away
06. Chariots of Fire
07. If You Leave Me Now
08. Nothing's Gonna Stop Us Now
09. Memory
10. The Theme from 'Missing'
11. The Third Man
12. A Whiter Shade of Pale
13. Misty
14. Nights in White Satin
15. Going Home
16. Theme from 'The Deer Hunter' (Cavatina)
17. Candle in the Wind
18. Every Breath You Take

CD2:

01. Always on My Mind
02. One Moment in Time
03. I Want to Know What Love Is
04. All I Ask of You
05. Strawberry Fields Forever
06. Chi Mai
07. Careless Whisper
08. Don't Cry for Me Argentina
09. We Don't Need Another Hero
10. Sailing
11. Something's Gotten Hold of My Heart
12. Crockett's Theme
13. Up Where We Belong
14. I Know Him So Well
15. Jealous Guy
16. The Music of the Night
17. Equinoxe, Pt. 5
18. The Power of Love


EAC log CD1
Exact Audio Copy V1.0 beta 3 from 29. August 2011

EAC extraction logfile from 29. January 2012, 21:03

The Shadows / Memories 36 Guitar Moods CD1

Used drive : ATAPI iHAP122 9 Adapter: 0 ID: 0

Read mode : Secure
Utilize accurate stream : Yes
Defeat audio cache : Yes
Make use of C2 pointers : No

Read offset correction : 6
Overread into Lead-In and Lead-Out : No
Fill up missing offset samples with silence : Yes
Delete leading and trailing silent blocks : No
Null samples used in CRC calculations : Yes
Used interface : Native Win32 interface for Win NT & 2000

Used output format : User Defined Encoder
Selected bitrate : 768 kBit/s
Quality : High
Add ID3 tag : No
Command line compressor : C:Program Files (x86)Exact Audio CopyFLACFLAC.EXE
Additional command line options : -6 -V -T "ARTIST=%artist%" -T "TITLE=%title%" -T "ALBUM=%albumtitle%" -T "DATE=%year%" -T "TRACKNUMBER=%tracknr%" -T "GENRE=%genre%" -T "COMMENT=%comment%" -T "BAND=%albuminterpret%" -T "ALBUMARTIST=%albuminterpret%" -T "COMPOSER=%composer%" %haslyrics%--tag-from-file=LYRICS="%lyricsfile%"%haslyrics% -T "DISCNUMBER=%cdnumber%" -T "TOTALDISCS=%totalcds%" -T "TOTALTRACKS=%numtracks%" %hascover%--picture="%coverfile%"%hascover% %source% -o %dest% TOC of the extracted CD

Track | Start | Length | Start sector | End sector
---------------------------------------------------------
1 | 0:00.00 | 4:25.59 | 0 | 19933
2 | 4:25.59 | 3:25.61 | 19934 | 35369
3 | 7:51.45 | 3:16.65 | 35370 | 50134
4 | 11:08.35 | 3:40.42 | 50135 | 66676
5 | 14:49.02 | 4:11.33 | 66677 | 85534
6 | 19:00.35 | 4:09.16 | 85535 | 104225
7 | 23:09.51 | 4:10.43 | 104226 | 123018
8 | 27:20.19 | 4:20.46 | 123019 | 142564
9 | 31:40.65 | 3:52.11 | 142565 | 159975
10 | 35:33.01 | 3:50.43 | 159976 | 177268
11 | 39:23.44 | 3:09.14 | 177269 | 191457
12 | 42:32.58 | 5:02.53 | 191458 | 214160
13 | 47:35.36 | 2:56.71 | 214161 | 227431
14 | 50:32.32 | 4:26.21 | 227432 | 247402
15 | 54:58.53 | 3:33.13 | 247403 | 263390
16 | 58:31.66 | 3:26.65 | 263391 | 278905
17 | 61:58.56 | 3:49.40 | 278906 | 296120
18 | 65:48.21 | 4:10.19 | 296121 | 314889 Range status and errors

Selected range

Filename C:AudioThe Shadows - Memories 36 Guitar Moods CD1.wav

Peak level 89.4 %
Extraction speed 3.3 X
Range quality 100.0 %
Test CRC 20C8DEE5
Copy CRC 20C8DEE5
Copy OK

No errors occurred


AccurateRip summary

Track 1 accurately ripped (confidence 3) [C8164DF8] (AR v1)
Track 2 accurately ripped (confidence 3) [A6D57361] (AR v1)
Track 3 accurately ripped (confidence 3) [233E1C3C] (AR v1)
Track 4 accurately ripped (confidence 3) [1AB004E4] (AR v1)
Track 5 accurately ripped (confidence 3) [FD7028FE] (AR v1)
Track 6 accurately ripped (confidence 3) [B04D1B65] (AR v1)
Track 7 accurately ripped (confidence 3) [96A4CB37] (AR v1)
Track 8 accurately ripped (confidence 3) [A16D13A3] (AR v1)
Track 9 accurately ripped (confidence 3) [DDA2D973] (AR v1)
Track 10 accurately ripped (confidence 3) [AE0F36AA] (AR v1)
Track 11 accurately ripped (confidence 3) [B6F97AEC] (AR v1)
Track 12 accurately ripped (confidence 3) [FC39DE76] (AR v1)
Track 13 accurately ripped (confidence 3) [FE9CC18F] (AR v1)
Track 14 accurately ripped (confidence 3) [310E7720] (AR v1)
Track 15 accurately ripped (confidence 3) [CA0D3EF2] (AR v1)
Track 16 accurately ripped (confidence 3) [4D761D78] (AR v1)
Track 17 accurately ripped (confidence 3) [0BBA1836] (AR v1)
Track 18 accurately ripped (confidence 3) [9A18B7E1] (AR v1)

All tracks accurately ripped

End of status report

==== Log checksum 01C10708D9BC5C0C1EEF925C31A4DCD5DCBAC27730E09A444DDCD9358B82EB65 ====

EAC log CD2
Exact Audio Copy V1.0 beta 3 from 29. August 2011

EAC extraction logfile from 29. January 2012, 20:13

The Shadows / Memories 36 Guiter Moods CD 2

Used drive : ATAPI iHAP122 9 Adapter: 0 ID: 0

Read mode : Secure
Utilize accurate stream : Yes
Defeat audio cache : Yes
Make use of C2 pointers : No

Read offset correction : 6
Overread into Lead-In and Lead-Out : No
Fill up missing offset samples with silence : Yes
Delete leading and trailing silent blocks : No
Null samples used in CRC calculations : Yes
Used interface : Native Win32 interface for Win NT & 2000

Used output format : User Defined Encoder
Selected bitrate : 768 kBit/s
Quality : High
Add ID3 tag : No
Command line compressor : C:Program Files (x86)Exact Audio CopyFLACFLAC.EXE
Additional command line options : -6 -V -T "ARTIST=%artist%" -T "TITLE=%title%" -T "ALBUM=%albumtitle%" -T "DATE=%year%" -T "TRACKNUMBER=%tracknr%" -T "GENRE=%genre%" -T "COMMENT=%comment%" -T "BAND=%albuminterpret%" -T "ALBUMARTIST=%albuminterpret%" -T "COMPOSER=%composer%" %haslyrics%--tag-from-file=LYRICS="%lyricsfile%"%haslyrics% -T "DISCNUMBER=%cdnumber%" -T "TOTALDISCS=%totalcds%" -T "TOTALTRACKS=%numtracks%" %hascover%--picture="%coverfile%"%hascover% %source% -o %dest% TOC of the extracted CD

Track | Start | Length | Start sector | End sector
---------------------------------------------------------
1 | 0:00.00 | 3:34.44 | 0 | 16093
2 | 3:34.44 | 4:41.59 | 16094 | 37227
3 | 8:16.28 | 4:44.46 | 37228 | 58573
4 | 13:00.74 | 4:13.48 | 58574 | 77596
5 | 17:14.47 | 4:10.05 | 77597 | 96351
6 | 21:24.52 | 3:38.51 | 96352 | 112752
7 | 25:03.28 | 4:19.23 | 112753 | 132200
8 | 29:22.51 | 3:18.03 | 132201 | 147053
9 | 32:40.54 | 4:17.72 | 147054 | 166400
10 | 36:58.51 | 4:50.17 | 166401 | 188167
11 | 41:48.68 | 4:39.39 | 188168 | 209131
12 | 46:28.32 | 3:46.21 | 209132 | 226102
13 | 50:14.53 | 4:21.49 | 226103 | 245726
14 | 54:36.27 | 4:12.01 | 245727 | 264627
15 | 58:48.28 | 4:12.37 | 264628 | 283564
16 | 63:00.65 | 4:52.67 | 283565 | 305531
17 | 67:53.57 | 5:22.17 | 305532 | 329698
18 | 73:15.74 | 4:56.11 | 329699 | 351909 Range status and errors

Selected range

Filename C:AudioThe Shadows - Memories 36 Guiter Moods CD 2.wav

Peak level 100.0 %
Extraction speed 3.6 X
Range quality 99.9 %
Test CRC 43801B42
Copy CRC 43801B42
Copy OK

No errors occurred


AccurateRip summary

Track 1 accurately ripped (confidence 4) [3191AD6F] (AR v1)
Track 2 accurately ripped (confidence 4) [0528B817] (AR v1)
Track 3 accurately ripped (confidence 4) [2CB18A99] (AR v1)
Track 4 accurately ripped (confidence 4) [AF835D38] (AR v1)
Track 5 accurately ripped (confidence 4) [FF953F50] (AR v1)
Track 6 accurately ripped (confidence 4) [9A1A316D] (AR v1)
Track 7 accurately ripped (confidence 4) [2A43A680] (AR v1)
Track 8 accurately ripped (confidence 4) [A7ABD497] (AR v1)
Track 9 accurately ripped (confidence 4) [89EBE8E8] (AR v1)
Track 10 accurately ripped (confidence 4) [8930E8BF] (AR v1)
Track 11 accurately ripped (confidence 4) [A8E27642] (AR v1)
Track 12 accurately ripped (confidence 4) [2DC79B07] (AR v1)
Track 13 accurately ripped (confidence 4) [A742D396] (AR v1)
Track 14 accurately ripped (confidence 4) [8C93B2FB] (AR v1)
Track 15 accurately ripped (confidence 4) [E0C179A0] (AR v1)
Track 16 accurately ripped (confidence 4) [9470788E] (AR v1)
Track 17 accurately ripped (confidence 4) [18506B7A] (AR v1)
Track 18 accurately ripped (confidence 4) [72BEB443] (AR v1)

All tracks accurately ripped

End of status report

==== Log checksum F7C157B8CFD3A4AB97240B84553D9038C9CAAC95CA1F6130DD37C9264BC5A22A ====



All thanks to original releaser - desperado





Mr Moods | Mr Moods | The Many Moods | Moods Various Artists | Moods Various Artist | Moods Various Artists | Charles Mingus Tijuana Moods | Guitar Heaven Greatest Guitar | Memories Ita Jap | X Art Romantic Memories Mov
The Shadows - Memories 36 Guitar Moods (2005) 2CD re-up Torrent Download with keygen, crack, serial, dvdrip, hdrip, HD, 720p, 1024p, 2016, 2015