Sweet Connection - Need Your Passion (2008)

New Download Links
Speed
 kbps
 kbps
 kbps

Sweet Connection - Need Your Passion (2008)
EAC Rip | FLAC (Img) + Cue + Log ~ 605 Mb | MP3 CBR320 ~ 187 Mb
Scans (PNG, 600 dpi) ~ 130 Mb | RAR 5% Recovery
Euro Disco, Italo Disco, Synth-pop | Unofficial Release | dwsrecords #DR081201

Sweet Connection was a female musical duo project from Germany. Active for a short period between 1988 to 1990, they were notable for their debut song "Need Your Passion".

Behind the project was euro disco record producer Luis Rodriguez, better known for his work with Modern Talking and C. C. Catch, with songwriter-producer Reinhardt Frantz (New Baccara, Casablanca, Pepper Girls). The group's image revolved around the sexy dichotomy of a sultry blonde and brunette.

The duo originally consisted of brunette June LaVonne Polichio (born December 27, 1959, Los Angeles, United States) (former lead singer of 'The Pinups', a German based Californian group) and blonde Inge Schaubschläger (born December 20, 1968, Wolfratshausen, Germany), a glamour model. The duo released their debut single "Need Your Passion" in 1988, which became a European club hit. At the end of the year followed their second single "Dirty Job".

In 1989 the duo was replaced by another duo with aliases Billie Joe and Sue Dixie (real names unknown). Unlike the early incarnation, the pair was given songwriting credits. The duo released two more singles for the following two years ("Heart To Heart" and "Love Bites") before dissolving in breaking up in 1990.

Years following the split, all four singles became a common fixture in nightclubs and Italo disco compilations.

Although an album was never released during their active career, in 2008, a compilation album titled after their hit debut song, Need Your Passion, was released by an independent record label DWS Records. It featured all of Sweet Connection's singles and remixes.
~ Wiki


***************


Track List:

01. Need Your Passion [08:50]
02. Dirty Job (Maxi-Version) [07:56]
03. Heart To Heart [06:56]
04. Love Bites [06:16]
05. Need Your Passion (Remix) [06:03]
06. Love Bites (12'' Remix) [05:53]
07. Need Your Passion (Night Fever Mix) [03:55]
08. Dirty Job (Instrumental) [04:07]
09. Heart To Heart (Instrumental Reprise Mix) [03:52]
10. Need Your Passion (Razormaid Mix) [08:29]
11. Need Your Passion (Instrumental Vol.2) [04:01]
12. Dirty Job (Single-Version) [03:39]
13. Heart To Heart (7'' Mix) [03:57]
14. Love Bites (Single-Version) [04:07]

EAC Log
Exact Audio Copy V0.99 prebeta 5 from 4. May 2009

Отчёт EAC об извлечении, выполненном 28. ноября 2009, 10:22

Sweet Connection / Need Your Passion

Дисковод: Optiarc DVD RW AD-5200A Adapter: 0 ID: 0

Режим чтения : Достоверность
Использование точного потока : Да
Отключение кэша аудио : Да
Использование указателей C2 : Нет

Коррекция смещения при чтении : 48
Способность читать области Lead-in и Lead-out : Нет
Заполнение пропущенных сэмплов тишиной : Да
Удаление блоков с тишиной в начале и конце : Нет
При вычислениях CRC использовались нулевые сэмплы : Да
Интерфейс : Установленный внешний ASPI-интерфейс

Выходной формат : Внутренние WAV-операции
Формат сэмплов : 44.100 Гц; 16 бит; стерео TOC извлечённого CD

Трек | Старт | Длительность | Начальный сектор | Конечный сектор
---------------------------------------------------------------------
1 | 0:00.00 | 8:49.29 | 0 | 39703
2 | 8:49.29 | 7:56.00 | 39704 | 75403
3 | 16:45.29 | 6:55.15 | 75404 | 106543
4 | 23:40.44 | 6:16.00 | 106544 | 134743
5 | 29:56.44 | 6:02.62 | 134744 | 161955
6 | 35:59.31 | 5:52.69 | 161956 | 188424
7 | 41:52.25 | 3:54.11 | 188425 | 205985
8 | 45:46.36 | 4:06.40 | 205986 | 224475
9 | 49:53.01 | 3:51.53 | 224476 | 241853
10 | 53:44.54 | 8:28.13 | 241854 | 279966
11 | 62:12.67 | 4:00.52 | 279967 | 298018
12 | 66:13.44 | 3:38.40 | 298019 | 314408
13 | 69:52.09 | 3:56.10 | 314409 | 332118
14 | 73:48.19 | 4:06.57 | 332119 | 350625 Характеристики диапазона извлечения и сообщения об ошибках

Выбранный диапазон

Имя файла E:Sweet Connection - Need Your PassionSweet Connection - Need Your Passion.wav

Пиковый уровень 100.0 %
Качество диапазона 100.0 %
CRC теста C95EC1F2
CRC копии C95EC1F2
Копирование... OK

Ошибок не произошло


AccurateRip: сводка

Трек 1 точное извлечение (доверие 1) [7A0295A7]
Трек 2 точное извлечение (доверие 1) [448CEF10]
Трек 3 точное извлечение (доверие 1) [B19E5628]
Трек 4 точное извлечение (доверие 1) [F7107AA5]
Трек 5 точное извлечение (доверие 1) [C79A8B0A]
Трек 6 точное извлечение (доверие 1) [B6202DE6]
Трек 7 точное извлечение (доверие 1) [DFD0E831]
Трек 8 точное извлечение (доверие 1) [E60F2036]
Трек 9 точное извлечение (доверие 1) [637FD877]
Трек 10 точное извлечение (доверие 1) [38517D59]
Трек 11 точное извлечение (доверие 1) [77C1051F]
Трек 12 точное извлечение (доверие 1) [3AC874A4]
Трек 13 точное извлечение (доверие 1) [062F5B48]
Трек 14 точное извлечение (доверие 1) [ADA81E8F]

Все треки извлечены точно

Конец отчёта

DR Log
foobar2000 1.2.6 / Dynamic Range Meter 1.1.1
log date: 2015-06-12 20:46:12

--------------------------------------------------------------------------------
Analyzed: Sweet Connection / Need Your Passion
--------------------------------------------------------------------------------

DR Peak RMS Duration Track
--------------------------------------------------------------------------------
DR10 -0.11 dB -11.45 dB 8:49 01-Need Your Passion
DR10 -0.11 dB -11.37 dB 7:56 02-Dirty Job (Maxi-Version)
DR9 0.00 dB -10.75 dB 6:55 03-Heart To Heart
DR10 -0.11 dB -11.23 dB 6:16 04-Love Bites
DR9 -0.11 dB -11.76 dB 6:03 05-Need Your Passion (Remix)
DR11 -0.11 dB -12.29 dB 5:53 06-Love Bites (12'' Remix)
DR10 -0.11 dB -10.74 dB 3:54 07-Need Your Passion (Night Fever Mix)
DR10 -0.11 dB -11.64 dB 4:07 08-Dirty Job (Instrumental)
DR10 0.00 dB -10.58 dB 3:52 09-Heart To Heart (Instrumental Reprise Mix)
DR9 -0.12 dB -10.49 dB 8:28 10-Need Your Passion (Razormaid Mix)
DR10 -0.11 dB -10.98 dB 4:01 11-Need Your Passion (Instrumental Vol.2)
DR11 -0.11 dB -11.69 dB 3:39 12-Dirty Job (Single-Version)
DR9 -0.11 dB -10.59 dB 3:56 13-Heart To Heart (7'' Mix)
DR8 -0.26 dB -10.11 dB 4:07 14-Love Bites (Single-Version)
--------------------------------------------------------------------------------

Number of tracks: 14
Official DR value: DR10

Samplerate: 44100 Hz
Channels: 2
Bits per sample: 16
Bitrate: 1034 kbps
Codec: FLAC
================================================================================

CUETools Log
[CUETools log; Date: 11.06.2015 23:04:35; Version: 2.1.5]
[CTDB TOCID: kZnVIdIcgvQJK7M4e6MNQLwkDWw-] disk not present in database.
[AccurateRip ID: 002d13f9-01d0676a-cc12430e] found.
Track [ CRC | V2 ] Status
01 [7a0295a7|ec6ead87] (1+0/1) Accurately ripped
02 [448cef10|fb86f6a9] (1+0/1) Accurately ripped
03 [b19e5628|98048bd1] (1+0/1) Accurately ripped
04 [f7107aa5|1ac46842] (1+0/1) Accurately ripped
05 [c79a8b0a|eb7b6078] (1+0/1) Accurately ripped
06 [b6202de6|e672766e] (1+0/1) Accurately ripped
07 [dfd0e831|63e6b9ff] (1+0/1) Accurately ripped
08 [e60f2036|993dd430] (1+0/1) Accurately ripped
09 [637fd877|04780732] (1+0/1) Accurately ripped
10 [38517d59|edd30d5e] (1+0/1) Accurately ripped
11 [77c1051f|ec97b31a] (1+0/1) Accurately ripped
12 [3ac874a4|5665be42] (1+0/1) Accurately ripped
13 [062f5b48|e933716e] (1+0/1) Accurately ripped
14 [ada81e8f|8660ec50] (1+0/1) Accurately ripped

Track Peak [ CRC32 ] [W/O NULL] [ LOG ]
-- 100,0 [C95EC1F2] [76A0BE62] CRC32
01 98,7 [FA0E7245] [BA409D8E]
02 98,7 [11210AAE] [ED132CB8]
03 100,0 [F3B81706] [0DEED9C3]
04 98,7 [E85DBCE2] [51D783B1]
05 98,7 [6A0AFD90] [DF41CD16]
06 98,7 [A5A0AE53] [A2EAE65B]
07 98,7 [C1A1C761] [6864F122]
08 98,7 [C05C3EE6] [47C76F7E]
09 100,0 [D6CDC564] [53E3CE1C]
10 98,6 [A787D5BA] [87A957EC]
11 98,7 [4C6ECD05] [02E60134]
12 98,7 [C9C054B0] [CD040B5B]
13 98,7 [4032D009] [D4DD7FEB]
14 97,0 [836B58B7] [5D4FD282]


All thanks go to Pol Alex
Download:

Uploadable: FLAC-part 1 | FLAC-part 2 | Scans | mp3



Sabrina Sweet Leanna Sweet | San Francisco Connection | The Scottish Connection | The Columbian Connection | The Cosmic Connection | A R Rahman Connection | The Kyoto Connection | French Connection Waf | Paris Connection | X Art Russian Connection
Sweet Connection - Need Your Passion (2008) Torrent Download with keygen, crack, serial, dvdrip, hdrip, HD, 720p, 1024p, 2016, 2015