Roomful Of Blues - Live At Lupos Heartbreak Hotel (1987) Re-Up

New Download Links
Speed
 kbps
 kbps
 kbps

Roomful Of Blues - Live At Lupo's Heartbreak Hotel (1987)
EAC Rip | FLAC (Image) + CUE + LOG | 279 MB | Covers Included
Genre: Blues/Jump-Blues/Jazz/Swing | Label: Rounder/Varrick | Catalog Number: VR-024
Release Date: Nov 1987 | RAR 5% Rec. | Uploaded

Roomful's first live album, released in 1987, recalls the days and the sound of the great rhythm and blues big bands. Here are classic old songs and a few new ones, delivered with all the fire and drive that Roomful is famous for, with outstanding contributions from tenor sax player and singer Greg Piccolo,guitarist Ronnie Earl,and keyboardist and singer Ron Levy.Recorded on their home turf in Providence,Rhode Island.Live at Lupo's Heartbreak Hotel is a fine, but unremarkable, set Roomful of Blues recorded in the late '80s. The source material — Fats Domino, Howlin' Wolf, etc. — is fine and there are good solos scattered throughout the album, but the entire record never quite catches fire.



-----------------
Tracklist
-----------------

1. Gator's Groove / Welcome to Lupo's 4:55
2. Coconut Milk 5:14
3. Three Hours Past Midnight 8:03
4. Three Hundred Pounds 3:29
5. House of Joy 3:03
6. Pink Champagne 4:45
7. Please Don't Leave 3:33
8. That's My Life 3:54
9. Please Don't Leave Me 5:10
10. Zydeco Boogaloo 0:22

Personnel:
Greg Piccolo (vocals,tenor saxophone)
Ron Levy (vocals,piano,organ)
Curtis Selgaso (vocals)
Ronnie Earl (guitar)
Rich Lataille (alto & tenor saxophone)
Doug James (baritone saxophone)
Bob Enos (trumpet,background vocals)
Porky Cohen (trombone)
Rory MacLeod (acoustic & electric bass)
John Rossi (drums)

Additional personnel:
David Hidalgo, Cesar Rosas (guitar)
Steve Berlin (baritone saxophone).

Recorded live at Lupo's Heartbreak Hotel,
Providence,Rhode Island



EAC LOG
Exact Audio Copy V0.99 prebeta 5 from 4. May 2009

EAC extraction logfile from 21. July 2010, 9:09

Roomful Of Blues / Live At Lupo's Heartreak Hotel

Used drive : HL-DT-STDVDRAM GSA-H60N Adapter: 3 ID: 0

Read mode : Secure
Utilize accurate stream : Yes
Defeat audio cache : Yes
Make use of C2 pointers : No

Read offset correction : 667
Overread into Lead-In and Lead-Out : No
Fill up missing offset samples with silence : Yes
Delete leading and trailing silent blocks : No
Null samples used in CRC calculations : Yes
Used interface : Native Win32 interface for Win NT & 2000

Used output format : User Defined Encoder
Selected bitrate : 1024 kBit/s
Quality : High
Add ID3 tag : No
Command line compressor : C:Program FilesExact Audio CopyFLACFLAC.EXE
Additional command line options : -6 -V -T "ARTIST=%a" -T "TITLE=%t" -T "ALBUM=%g" -T "DATE=%y" -T "TRACKNUMBER=%n" -T "GENRE=%m" -T "COMMENT=%e" %s -o %d TOC of the extracted CD

Track | Start | Length | Start sector | End sector
---------------------------------------------------------
1 | 0:00.00 | 4:55.12 | 0 | 22136
2 | 4:55.12 | 5:14.00 | 22137 | 45686
3 | 10:09.12 | 8:03.00 | 45687 | 81911
4 | 18:12.12 | 3:29.08 | 81912 | 97594
5 | 21:41.20 | 3:03.67 | 97595 | 111386
6 | 24:45.12 | 4:45.00 | 111387 | 132761
7 | 29:30.12 | 3:33.00 | 132762 | 148736
8 | 33:03.12 | 3:54.00 | 148737 | 166286
9 | 36:57.12 | 5:11.03 | 166287 | 189614
10 | 42:08.15 | 0:21.10 | 189615 | 191199 Range status and errors

Selected range

Filename D:MUSIKRoomful Of Blues - Live At Lupo's Heartbreak Hotel [FLA] (1987)Roomful Of Blues - Live At Lupo's Heartreak Hotel.wav

Peak level 100.0 %
Range quality 100.0 %
Copy CRC AA2652C3
Copy OK

No errors occurred


AccurateRip summary

Track 1 accurately ripped (confidence 1) [B7320423]
Track 2 accurately ripped (confidence 1) [DF7A1ADE]
Track 3 accurately ripped (confidence 1) [24F2FB29]
Track 4 accurately ripped (confidence 1) [AC137A4E]
Track 5 accurately ripped (confidence 1) [D027A2D6]
Track 6 accurately ripped (confidence 1) [59302B2D]
Track 7 accurately ripped (confidence 1) [D3A6921A]
Track 8 accurately ripped (confidence 1) [DC5C200C]
Track 9 accurately ripped (confidence 1) [1B543079]
Track 10 accurately ripped (confidence 1) [A96FED45]

All tracks accurately ripped

End of status report


CUE TOOLS LOG
[CUETools log; Date: 21.07.2010 09:11:34; Version: 2.0.9]
[AccurateRip ID: 00121df7-008d9bbc-8509f50a] found.
Track [ CRC ] Status
01 [b7320423] (1/1) Accurately ripped
02 [df7a1ade] (1/1) Accurately ripped
03 [24f2fb29] (1/1) Accurately ripped
04 [ac137a4e] (1/1) Accurately ripped
05 [d027a2d6] (1/1) Accurately ripped
06 [59302b2d] (1/1) Accurately ripped
07 [d3a6921a] (1/1) Accurately ripped
08 [dc5c200c] (1/1) Accurately ripped
09 [1b543079] (1/1) Accurately ripped
10 [a96fed45] (1/1) Accurately ripped

Track Peak [ CRC32 ] [W/O NULL] [ LOG ]
-- 100,0 [AA2652C3] [3CD70E75] CRC32
01 81,9 [D21F8D04] [B128B4AD]
02 77,1 [41170C54] [4F47056A]
03 85,1 [4CDCA4E0] [19DF70B5]
04 94,7 [820676CD] [6B1FDD9C]
05 100,0 [CC4FF076] [AC89D42E]
06 100,0 [CE54467B] [703D88DE]
07 91,2 [FC8AC359] [DABD391A]
08 98,5 [21E5342E] [953D2DEE]
09 100,0 [8C1DFEF8] [431B45A2]
10 82,7 [8BE1DD0E] [B1D74A70]


Homepage Roomful Of Blues


Uploaded

***** Pass: countryfreak *****


Roomful Of Blues | Michael Jackson Heartbreak Hotel | The Moody Blues Live At The Bbc | Live At The House Of Blues | Chicago Blues Live | Tupac Live At The House Of Blues | Moody Blues Live At The Isle Of Wight Festival | The Moody Blues Live At The Isle Of Wight Festival | Jeff Beck Live At The B B King Blues Club | Hotel Da Incubo Hotel Hell Italy
Roomful Of Blues - Live At Lupos Heartbreak Hotel (1987) Re-Up Torrent Download with keygen, crack, serial, dvdrip, hdrip, HD, 720p, 1024p, 2016, 2015