George Wild Child Butler - Keep On Doing What Youre Doing (1969)

New Download Links
Speed
 kbps
 kbps
 kbps

George ''Wild Child'' Butler - Keep On Doing What You're Doing (1969)
EAC Rip | FLAC (Image) + CUE + LOG | 250 MB | Covers Included
Genre: Blues | Label: Black Magic | Catalog Number: 9015 | Release Date: Nov 11, 1969/1991 | RAR 5% Rec. | RS.com

George remained active throughout the 60's and from 1966 he performed mainly in Houston and New Orleans. He worked extensively with the late Cousin Joe Pleasant and Roosevelt Sykes in New Orleans and the great Sam "Lightnin'" Hopkins in Houston. George appears as a sideman on a number of sides with Lightnin' Hopkins, the best known of which being the album on the Jewel label entitled "TALKING SOME SENSE". He was next signed to a contract by the Mercury label; in fact George observes, "The record companies always wanted me to sign an exclusive contract, and their people always met me with a paper their hand." George did an album for the Mercury label entitled "KEEP ON DOING WHAT YOU'RE DOING". This album contained brand new Wild Child material including "HIPPIES PLAYGROUND" and also the song that has become most associated with George, "GRAVY CHILD" . However, during this period Mercury Records experienced severe distribution problems and granted George's request of an outright release from his contract with them. "KEEP ON DOING WHAT YOU'RE DOING" on the Mercury label should be a prime candidate for re-release as a blues classic. George next recorded on the TK label in 1977 doing an album entitled "FUNKY BUTT LOVER". TK Records soon went out of business and George had to go to considerable trouble to regain possession of his original master, which he later leased to Rooster Records. From 1977 until 1986 George was a part of an all-star blues package including Ted Harvy, Sam Lay, Jimmy Rogers and Wild Child Butler. His travels with this package took him from Atlanta, Georgia, to Whitehorse in the Yukon, and just about everywhere in between. During this period of his career George appeared in nearly every state in the union, but ironically rarely in Chicago itself. When he did appear in Chicago, he would be asked to close shows by the legendary Howlin' Wolf, an honor granted to few performers. George's powerful singing style is often compared to that of Howlin' Wolf and one syndicated blues DJ even referred to him as a Howlin' Wolf imitator, which established the fact that the DJ knew little about either man.



-----------------
Tracklist
-----------------

1. Hippie's playground 2:40
2. Gravy child 4:02
3. Can you use a man? 3:33
4. Horner's corner 3:12
5. Worried all the time 3:13
6. Keep on doin' what you're doin' 2:53
7. Sweet love 2:33
8. It's all over 2:47
9. Never had nothin' 4:16
10. The best of Wild Child 4:17
11. My baby done put me down 4:50
12. When I first met you baby 3:32

Flac Download RS.com

Part 1|Part 2|Part 3


***** Pass: avaxhome *****

EAC LOG
Exact Audio Copy V0.99 prebeta 5 from 4. May 2009

EAC extraction logfile from 21. July 2010, 13:03

George 'Wild Child' Butler / Keep On Doing What You're Doing

Used drive : HL-DT-STDVDRAM GSA-H60N Adapter: 3 ID: 0

Read mode : Secure
Utilize accurate stream : Yes
Defeat audio cache : Yes
Make use of C2 pointers : No

Read offset correction : 667
Overread into Lead-In and Lead-Out : No
Fill up missing offset samples with silence : Yes
Delete leading and trailing silent blocks : No
Null samples used in CRC calculations : Yes
Used interface : Native Win32 interface for Win NT & 2000

Used output format : User Defined Encoder
Selected bitrate : 1024 kBit/s
Quality : High
Add ID3 tag : No
Command line compressor : C:Program FilesExact Audio CopyFLACFLAC.EXE
Additional command line options : -6 -V -T "ARTIST=%a" -T "TITLE=%t" -T "ALBUM=%g" -T "DATE=%y" -T "TRACKNUMBER=%n" -T "GENRE=%m" -T "COMMENT=%e" %s -o %d TOC of the extracted CD

Track | Start | Length | Start sector | End sector
---------------------------------------------------------
1 | 0:00.00 | 2:40.53 | 0 | 12052
2 | 2:40.53 | 4:02.50 | 12053 | 30252
3 | 6:43.28 | 3:33.62 | 30253 | 46289
4 | 10:17.15 | 3:12.48 | 46290 | 60737
5 | 13:29.63 | 3:13.20 | 60738 | 75232
6 | 16:43.08 | 2:53.42 | 75233 | 88249
7 | 19:36.50 | 2:33.05 | 88250 | 99729
8 | 22:09.55 | 2:47.10 | 99730 | 112264
9 | 24:56.65 | 4:16.25 | 112265 | 131489
10 | 29:13.15 | 4:17.05 | 131490 | 150769
11 | 33:30.20 | 4:50.38 | 150770 | 172557
12 | 38:20.58 | 3:31.45 | 172558 | 188427 Range status and errors

Selected range

Filename D:MUSIKGeorge ''Wild Child'' Butler - Keep On Doing What You're Doing [FLA]George 'Wild Child' Butler - Keep On Doing What You're Doing.wav

Peak level 97.5 %
Range quality 100.0 %
Copy CRC 798067C7
Copy OK

No errors occurred


AccurateRip summary

Track 1 accurately ripped (confidence 1) [94E0D62F]
Track 2 accurately ripped (confidence 1) [10DAE5AA]
Track 3 accurately ripped (confidence 1) [08744E9E]
Track 4 accurately ripped (confidence 1) [54853CF0]
Track 5 accurately ripped (confidence 1) [29FF9367]
Track 6 accurately ripped (confidence 1) [96C76662]
Track 7 accurately ripped (confidence 1) [CE21009A]
Track 8 accurately ripped (confidence 1) [32120AF2]
Track 9 accurately ripped (confidence 1) [E035DDEC]
Track 10 accurately ripped (confidence 1) [EFB9C31A]
Track 11 accurately ripped (confidence 1) [EF387A6C]
Track 12 accurately ripped (confidence 1) [2E74DD52]

All tracks accurately ripped

End of status report


CUE TOOLS LOG
[CUETools log; Date: 22.07.2010 07:53:25; Version: 2.0.9]
[AccurateRip ID: 0011d2ba-00a775ff-8109d00c] found.
Track [ CRC ] Status
01 [94e0d62f] (1/1) Accurately ripped
02 [10dae5aa] (1/1) Accurately ripped
03 [08744e9e] (1/1) Accurately ripped
04 [54853cf0] (1/1) Accurately ripped
05 [29ff9367] (1/1) Accurately ripped
06 [96c76662] (1/1) Accurately ripped
07 [ce21009a] (1/1) Accurately ripped
08 [32120af2] (1/1) Accurately ripped
09 [e035ddec] (1/1) Accurately ripped
10 [efb9c31a] (1/1) Accurately ripped
11 [ef387a6c] (1/1) Accurately ripped
12 [2e74dd52] (1/1) Accurately ripped

Track Peak [ CRC32 ] [W/O NULL] [ LOG ]
-- 97,5 [798067C7] [BE058375] CRC32
01 86,4 [EB0A2769] [1832DABB]
02 91,2 [91BECCCF] [58C2FB2D]
03 94,5 [94419C2A] [6020B7AE]
04 83,7 [85E9EB08] [D0C978A1]
05 80,3 [FB330082] [3ECD36A2]
06 85,7 [A4050632] [3862F61E]
07 90,1 [0187F1F3] [82A654EA]
08 62,0 [72E31BD8] [7CFBA69B]
09 85,0 [AE6EDD96] [59EFCF94]
10 86,0 [24C912CE] [DEACFBA2]
11 89,8 [377E4054] [76B00422]
12 97,5 [D462CDCD] [1E99F2D9]


Biography by Bill Dahl
From all accounts, George Butler was indeed a "wild child." But he found time between the youthful shenanigans that inspired his mom to bestow his descriptive nickname to learn some harp basics at age 12. He was gigging professionally as a bandleader by the late '50s, but Butler's recording career didn't blossom until he moved to Chicago in 1966 and signed with Shreveport, LA-based Jewel Records (his sidemen on these sessions included bassist Willie Dixon and guitarist Jimmy Dawkins).The harpist didn't have much luck in the recording wars: his 1969 Mercury album sank with little trace, while a 1976 LP for T.K., Funky Butt Lover, did equally little for his fortunes (it was later reissued in slightly altered form on Rooster Blues as Lickin' Gravy). Around 1981, Butler moved up north to Ontario, Canada, and continued his career. A decade later, he cut the first of two albums for British producer Mike Vernon; These Mean Old Blues was an engaging set of original material cut in London. Stranger, the fruits of another English session, emerged in 1994.




Wild Child 1080 | John Butler Trio John Butler | Youre My Pet | Youre Mpt You | Youre Gonna Go Far Kid | Youre Never Fully | Youre Next Rerip | Youre Next 2011 | Cal Me When Youre Sober | The Apprentice Youre Fired
George Wild Child Butler - Keep On Doing What Youre Doing (1969) Torrent Download with keygen, crack, serial, dvdrip, hdrip, HD, 720p, 1024p, 2016, 2015