Buddy Guy - Born To Play Guitar (2015)

New Download Links
Speed
 kbps
 kbps
 kbps

Buddy Guy - Born To Play Guitar (2015)
EAC Rip | FLAC (Img) + Cue + Log ~ 388 Mb | Scans Included (JPG, 400 dpi) | RAR 5% Recovery
Blues | RCA Records #88875120372

Once again working with producer/songwriter Tom Hambridge -- the bluesman's main collaborator since 2008's Skin Deep -- Buddy Guy serves up a straight-ahead platter with Born to Play Guitar, his 28th studio album. Many of Guy's latter-day records loosely follow a theme, but Born to Play Guitar is pretty direct: just a collection of songs designed to showcase Buddy's oversized Stratocaster. Which isn't to say there's either a lack of variety or pro forma songwriting here. Hambridge cleverly colors Born to Play Guitar with a few bold, unexpected flourishes: the sweeps of sweet strings that accentuate "(Baby) You've Got What It Takes," a duet with Joss Stone that lightly recalls Etta James' Chess Records work; the big, blaring horns of "Thick Like Mississippi Mud" that moves that track out of the Delta and into an urban setting; the acoustic "Come Back Muddy" which performs that trick in reverse, pushing Chicago blues back down south. Elsewhere, Van Morrison contributes a moving tribute to B.B. King in "Flesh and Bone," a heartfelt ballad that doesn't quite fit with the rest of the record because it's about song, not feel -- a nice anomaly on a record whose greater concern is juke joint boogie. Guy delivers on this front quite ably, particularly when he's paired with fellow blues lifer Kim Wilson (as he is on "Too Late" and "Kiss Me Quick") or when Billy Gibbons slithers out of the Texas hills to lay down the heavy stomp of "Wear You Out," and while there are no surprises on these duets, nor on the proudly traditional Chicago blues of "Born to Play Guitar," "Back Up Mama," and "Whiskey, Beer & Wine," there is still pleasure in hearing a master tear into his beloved music.
~ Stephen Thomas Erlewine, All Music Guide


***************


Track List:

01. Born To Play Guitar [04:57]
02. Wear You Out [03:31]
03. Back Up Mama [04:43]
04. Too Late [02:47]
05. Whiskey, Beer & Wine [04:31]
06. Kiss Me Quick [02:56]
07. Crying Out Of One Eye [04:02]
08. (Baby) You Got What It Takes [03:18]
09. Turn Me Wild [04:37]
10. Crazy World [05:16]
11. Smarter Than I Was [05:28]
12. Thick Like Mississippi Mud [04:04]
13. Flesh & Bone (Dedicated to B.B. King) [04:02]
14. Come Back Muddy [05:12]

EAC Log
Exact Audio Copy V0.99 prebeta 5 from 4. May 2009

EAC extraction logfile from 31. July 2015, 11:44

Buddy Guy / Born To Play Guitar

Used drive : ATAPI iHAS122 C Adapter: 1 ID: 1

Read mode : Secure
Utilize accurate stream : Yes
Defeat audio cache : Yes
Make use of C2 pointers : No

Read offset correction : 6
Overread into Lead-In and Lead-Out : No
Fill up missing offset samples with silence : Yes
Delete leading and trailing silent blocks : No
Null samples used in CRC calculations : Yes
Used interface : Native Win32 interface for Win NT & 2000

Used output format : Internal WAV Routines
Sample format : 44.100 Hz; 16 Bit; Stereo TOC of the extracted CD

Track | Start | Length | Start sector | End sector
---------------------------------------------------------
1 | 0:00.00 | 4:56.39 | 0 | 22238
2 | 4:56.39 | 3:30.25 | 22239 | 38013
3 | 8:26.64 | 4:42.73 | 38014 | 59236
4 | 13:09.62 | 2:46.38 | 59237 | 71724
5 | 15:56.25 | 4:30.21 | 71725 | 91995
6 | 20:26.46 | 2:55.54 | 91996 | 105174
7 | 23:22.25 | 4:01.43 | 105175 | 123292
8 | 27:23.68 | 3:17.71 | 123293 | 138138
9 | 30:41.64 | 4:36.42 | 138139 | 158880
10 | 35:18.31 | 5:15.58 | 158881 | 182563
11 | 40:34.14 | 5:27.31 | 182564 | 207119
12 | 46:01.45 | 4:03.60 | 207120 | 225404
13 | 50:05.30 | 4:01.45 | 225405 | 243524
14 | 54:07.00 | 5:11.57 | 243525 | 266906 Range status and errors

Selected range

Filename C:UsersarthuBuddy Guy - Born To Play Guitar.wav

Peak level 99.3 %
Range quality 100.0 %
Test CRC FF3D804C
Copy CRC FF3D804C
Copy OK

No errors occurred


AccurateRip summary

Track 1 not present in database
Track 2 not present in database
Track 3 not present in database
Track 4 not present in database
Track 5 not present in database
Track 6 not present in database
Track 7 not present in database
Track 8 not present in database
Track 9 not present in database
Track 10 not present in database
Track 11 not present in database
Track 12 not present in database
Track 13 not present in database
Track 14 not present in database

None of the tracks are present in the AccurateRip database

End of status report

DR Log
foobar2000 1.2.6 / Dynamic Range Meter 1.1.1
log date: 2015-08-01 00:53:24

--------------------------------------------------------------------------------
Analyzed: Buddy Guy / Born To Play Guitar
--------------------------------------------------------------------------------

DR Peak RMS Duration Track
--------------------------------------------------------------------------------
DR8 -0.35 dB -11.13 dB 4:57 01-Born To Play Guitar
DR6 -0.14 dB -6.68 dB 3:30 02-Wear You Out
DR6 -0.08 dB -8.40 dB 4:43 03-Back Up Mama
DR6 -0.20 dB -7.31 dB 2:47 04-Too Late
DR6 -0.32 dB -7.26 dB 4:30 05-Whiskey, Beer & Wine
DR6 -0.08 dB -6.64 dB 2:56 06-Kiss Me Quick
DR6 -0.07 dB -6.89 dB 4:02 07-Crying Out Of One Eye
DR6 -0.47 dB -7.44 dB 3:18 08-(Baby) You Got What It Takes
DR6 -0.12 dB -6.90 dB 4:37 09-Turn Me Wild
DR6 -0.10 dB -7.28 dB 5:16 10-Crazy World
DR5 -0.05 dB -6.76 dB 5:27 11-Smarter Than I Was
DR6 -0.13 dB -6.59 dB 4:04 12-Thick Like Mississippi Mud
DR5 -0.06 dB -6.60 dB 4:02 13-Flesh & Bone (Dedicated to B.B. King)
DR7 -0.20 dB -10.10 dB 5:12 14-Come Back Muddy
--------------------------------------------------------------------------------

Number of tracks: 14
Official DR value: DR6

Samplerate: 44100 Hz
Channels: 2
Bits per sample: 16
Bitrate: 855 kbps
Codec: FLAC
================================================================================

CUETools Log
[CUETools log; Date: 01.08.2015 0:54:01; Version: 2.1.5]
[CTDB TOCID: y4hQc1R6TJpNayc5YYGLuLwdLC8-] found.
Track | CTDB Status
1 | (2/2) Accurately ripped
2 | (2/2) Accurately ripped
3 | (2/2) Accurately ripped
4 | (2/2) Accurately ripped
5 | (2/2) Accurately ripped
6 | (2/2) Accurately ripped
7 | (2/2) Accurately ripped
8 | (2/2) Accurately ripped
9 | (2/2) Accurately ripped
10 | (2/2) Accurately ripped
11 | (2/2) Accurately ripped
12 | (2/2) Accurately ripped
13 | (2/2) Accurately ripped
14 | (2/2) Accurately ripped
[AccurateRip ID: 001d838c-013bd1dc-c10de60e] disk not present in database.

Track Peak [ CRC32 ] [W/O NULL] [ LOG ]
-- 99,3 [FF3D804C] [FF8BF06B] CRC32
01 96,0 [8AA39281] [4C36EECA]
02 98,4 [7604C980] [D426DFCA]
03 99,1 [078299F9] [6D774003]
04 97,7 [286CF1EC] [A29A87D2]
05 96,3 [5A9E8A28] [0A015F3C]
06 99,0 [AEA4E190] [193D21D6]
07 99,2 [E775BB68] [320F3050]
08 94,6 [D3BBB521] [A07092C3]
09 98,6 [1E13F443] [3CFD00DC]
10 98,8 [BEBE9A39] [F3706B19]
11 99,3 [8F91E843] [A937CE40]
12 98,4 [57632E09] [F416C4D2]
13 99,2 [B23058AF] [EF9C5266]
14 97,6 [5562CB58] [FA1A88FC]


All thanks go to London

Buddy Guy in my blog!

Download:

Nitroflare: FLAC-part 1 | FLAC-part 2



Guitar Play Along | Play Funk Guitar | How Play Electric Guitar | Hal Leonard Guitar Play Along Dvd | Guitar Play Along Volume | Hal Leonard Guitar Play | Lick Library Learn To Play Blues Guitar | Guitar World 2015 | Next Level Guitar Satriani Made Simple 2015 | Buddy The Elf
Buddy Guy - Born To Play Guitar (2015) Torrent Download with keygen, crack, serial, dvdrip, hdrip, HD, 720p, 1024p, 2016, 2015