Dan Patlansky - Dear Silence Thieves (2014)

New Download Links
Speed
 kbps
 kbps
 kbps
Dan Patlansky - Dear Silence Thieves (2014) front

Dan Patlansky - Dear Silence Thieves (2014)
EAC | Flac(Image) + Cue + Log & MP3 CBR 320Kbps
Dan Patlansky, 473 395-7 | ~ 298 or 114 Mb | Scans Included
Blues Rock

No one ever said that thriving in the music business was easy. In fact, it’s a perpetual tightrope walk: juggling gigs on the road and time in the studio, managing managers and record producers, and paying equal attention to family and fans. Perhaps the most delicate balancing act of all, however, is deciding between art and commerce. What sizzles in artists’ hearts may not sell, and vice-versa. Consider the case of South Africa’s Dan Patlansky. In 2004, he released the CD True Blues. It contained two of the most well-known blues covers of all time: “Hootchi Cootchi Man” [sic] by Muddy Waters and “I Ain’t Superstitious” by Willie Dixon.

Compare that with Dan’s most recent album, 2014’s Dear Silence Thieves. Even though all of its ten songs are originals, either written or co-written by Patlansky, none of them are pure blues. They’re all contemporary rock or an extremely diluted form of blues rock. Only track five, “Taking Chances”, contains a traditional blues rhythm. It’s not that the rest are bad, but you won’t find them in any purist’s CD reference collection. Otherwise, Patlansky is a roaring guitar monster. With Dan on guitars and vocals are bass guitarist Clint Falconer, drummer Andy Maritz, and Theo Crous on keyboards and additional singing arrangements.

According to the “Biography” section of his website, he’s earned considerable plaudits and recognition in the blues rock world: “Ever since his debut album, Standing At The Station, followed by his 2004 major label (Blue Note, EMI produced) masterstroke True Blues, Dan Patlansky has been immersing himself in the rich and rollicking world of blues rock music. In February 2005, and again in July 2006, Selwyn Miller, the New Orleans based manager of David Gates, Bread, Randy Crawford and Petula Clark (amongst others), took Patlansky to New Orleans to showcase his outstanding talent.

“In 2006 Fender acknowledged his talent with a guitar and amp endorsement, making him only one of six on the continent to enjoy such a privilege…Dan started 2014 off with a bang when he was chosen to open for Bruce Springsteen in front of 64,000 people at the FNB Stadium in Johannesburg in February on his High Hopes tour. Dan was personally approved by Springsteen as support act, seeing as Springsteen rarely has guest artists for his shows. Also a milestone for Dan’s career when he played in front of the biggest audience he has ever played to.”

Dear Silence Thieves was chosen by Blues Rock Review as its number-one album in 2014; that’s a nice accolade that Dan has won. He may meander all over the musical map, but there’s no denying his instrumental talent. Perhaps by returning to his blues roots, no matter what the invisible hand of the free market may be pushing him to do, Dan will garner the attention of die-hard genre aficionados. The blues are still alive, and Patlansky would do well to play more.

~ bluesblastmagazine

Dan Patlansky


Dan Patlansky - Dear Silence Thieves (2014):

Dan Patlansky - Dear Silence Thieves (2014) cd

Tracklist:

01. Backbite 03:52
02. Pop Collar Jockey 04:23
03. Fetch Your Spade 03:52
04. Hold On 05:03
05. Taking Chances 03:02
06. Windmills and The Sea 04:13
07. Only an Ocean (Reprise) 04:07
08. Your War 05:47
09. Feels Like Home 03:27
10. Madison Lane 04:33

Musicians:

Dan Patlansky - guitars & vocals
Clint Falconer - bass guitar
Andy Maritz - drums
Theo Crous - additional string arrangements & keyboards


EAC Log
Exact Audio Copy V1.1 from 23. June 2015

EAC extraction logfile from 7. August 2015, 9:59

Dan Patlansky / Dear Silence Thieves

Used drive : TSSTcorpCDDVDW SH-224DB Adapter: 1 ID: 0

Read mode : Secure
Utilize accurate stream : Yes
Defeat audio cache : Yes
Make use of C2 pointers : No

Read offset correction : 6
Overread into Lead-In and Lead-Out : No
Fill up missing offset samples with silence : Yes
Delete leading and trailing silent blocks : No
Null samples used in CRC calculations : Yes
Used interface : Native Win32 interface for Win NT & 2000

Used output format : User Defined Encoder
Selected bitrate : 1024 kBit/s
Quality : High
Add ID3 tag : No
Command line compressor : C:Program Files (x86)Exact Audio Copywin64flac.exe
Additional command line options : -V -8 -T "Date=%year%" -T "Genre=%genre%" %source% TOC of the extracted CD

Track | Start | Length | Start sector | End sector
---------------------------------------------------------
1 | 0:00.00 | 3:52.02 | 0 | 17401
2 | 3:52.02 | 4:23.03 | 17402 | 37129
3 | 8:15.05 | 3:52.66 | 37130 | 54595
4 | 12:07.71 | 5:03.51 | 54596 | 77371
5 | 17:11.47 | 3:02.58 | 77372 | 91079
6 | 20:14.30 | 4:13.39 | 91080 | 110093
7 | 24:27.69 | 4:07.63 | 110094 | 128681
8 | 28:35.57 | 5:47.44 | 128682 | 154750
9 | 34:23.26 | 3:27.38 | 154751 | 170313
10 | 37:50.64 | 4:33.43 | 170314 | 190831 Range status and errors

Selected range

Filename D:Sket4erDan Patlansky - Dear Silence Thieves 2014Dan Patlansky - Dear Silence Thieves.wav

Peak level 98.8 %
Extraction speed 2.9 X
Range quality 99.9 %
Test CRC 4A159B45
Copy CRC 4A159B45
Copy OK

No errors occurred


AccurateRip summary

Track 1 cannot be verified as accurate (confidence 1) [0113A3C3], AccurateRip returned [35EDC8ED] (AR v2)
Track 2 cannot be verified as accurate (confidence 1) [1FB0226C], AccurateRip returned [03C72215] (AR v2)
Track 3 cannot be verified as accurate (confidence 1) [2C8E118D], AccurateRip returned [AACA95FA] (AR v2)
Track 4 cannot be verified as accurate (confidence 1) [01A83D81], AccurateRip returned [FF1B2E22] (AR v2)
Track 5 cannot be verified as accurate (confidence 1) [AE48F1F7], AccurateRip returned [35EE34DA] (AR v2)
Track 6 cannot be verified as accurate (confidence 1) [1A9641B9], AccurateRip returned [90CD4EB1] (AR v2)
Track 7 cannot be verified as accurate (confidence 1) [7DA4E5C3], AccurateRip returned [BA02FFFA] (AR v2)
Track 8 cannot be verified as accurate (confidence 1) [4E56A235], AccurateRip returned [E9443965] (AR v2)
Track 9 cannot be verified as accurate (confidence 1) [299B5794], AccurateRip returned [80883501] (AR v2)
Track 10 cannot be verified as accurate (confidence 1) [32263109], AccurateRip returned [90339F1B] (AR v2)

No tracks could be verified as accurate
You may have a different pressing from the one(s) in the database

End of status report

---- CUETools DB Plugin V2.1.6

[CTDB TOCID: nXoL9Yk9pa1UxKR2ODLaMiMGZHQ-] found
Submit result: nXoL9Yk9pa1UxKR2ODLaMiMGZHQ- has been confirmed
Track | CTDB Status
1 | (5/5) Accurately ripped
2 | (5/5) Accurately ripped
3 | (5/5) Accurately ripped
4 | (5/5) Accurately ripped
5 | (5/5) Accurately ripped
6 | (5/5) Accurately ripped
7 | (5/5) Accurately ripped
8 | (5/5) Accurately ripped
9 | (5/5) Accurately ripped
10 | (5/5) Accurately ripped ==== Log checksum AE8510109CF127DF302DB23DB79B42356E1DC6F58AA12CC9E17A66C9DEA35029 ====

DR Log
foobar2000 1.2.9 / Dynamic Range Meter 1.1.1
log date: 2015-08-09 09:11:35

--------------------------------------------------------------------------------
Analyzed: Dan Patlansky / Dear Silence Thieves
--------------------------------------------------------------------------------

DR Peak RMS Duration Track
--------------------------------------------------------------------------------
DR6 -0.10 dB -7.50 dB 3:52 01-Backbite
DR6 -0.10 dB -7.26 dB 4:23 02-Pop Collar Jockey
DR6 -0.10 dB -7.22 dB 3:53 03-Fetch Your Spade
DR5 -0.10 dB -7.94 dB 5:04 04-Hold On
DR6 -0.20 dB -7.82 dB 3:03 05-Taking Changes
DR5 -0.20 dB -7.52 dB 4:14 06-Windmills And The Sea
DR6 -0.10 dB -7.94 dB 4:08 07-Only An Ocean (Reprise)
DR6 -0.10 dB -7.78 dB 5:48 08-Your War
DR7 -0.10 dB -8.23 dB 3:28 09-Feels Like Home
DR6 -0.10 dB -8.29 dB 4:34 10-Madison Lane
--------------------------------------------------------------------------------

Number of tracks: 10
Official DR value: DR6

Samplerate: 44100 Hz
Channels: 2
Bits per sample: 16
Bitrate: 908 kbps
Codec: FLAC

CUETools Log
[CUETools log; Date: 08.08.2015 21:22:49; Version: 2.1.4]
[CTDB TOCID: nXoL9Yk9pa1UxKR2ODLaMiMGZHQ-] found.
Track | CTDB Status
1 | (6/6) Accurately ripped
2 | (6/6) Accurately ripped
3 | (6/6) Accurately ripped
4 | (6/6) Accurately ripped
5 | (6/6) Accurately ripped
6 | (6/6) Accurately ripped
7 | (6/6) Accurately ripped
8 | (6/6) Accurately ripped
9 | (6/6) Accurately ripped
10 | (6/6) Accurately ripped
[AccurateRip ID: 000fc03d-007e8adc-8009f00a] found.
Track [ CRC | V2 ] Status
01 [22516f44|0113a3c3] (0+0/2) No match
02 [74513b2d|1fb0226c] (0+0/2) No match
03 [93ce2474|2c8e118d] (0+0/2) No match
04 [70a30580|01a83d81] (0+0/2) No match
05 [56ffd35e|ae48f1f7] (0+0/2) No match
06 [44990802|1a9641b9] (0+0/2) No match
07 [b7b433f6|7da4e5c3] (0+0/2) No match
08 [9a741154|4e56a235] (0+0/2) No match
09 [89b06f16|299b5794] (0+0/2) No match
10 [0104fd4f|32263109] (0+0/2) No match

Track Peak [ CRC32 ] [W/O NULL] [ LOG ]
-- 98,8 [4A159B45] [745F8C55] CRC32
01 98,8 [C9C83D97] [A8881A79]
02 98,8 [8CFA5407] [43557D2E]
03 98,8 [33CF49D9] [6293260F]
04 98,8 [C310D64D] [4829A26E]
05 97,7 [5FC19B3E] [E25E7C06]
06 97,7 [0FB370AC] [65483256]
07 98,8 [C6191E26] [6F96361A]
08 98,8 [313265CB] [86E649D6]
09 98,8 [61641C4D] [37E2DDA1]
10 98,8 [4359F4CD] [160B5519]

Dan Patlansky - Dear Silence Thieves (2014) back

All thanks go to Sket4er

Download Dan Patlansky - Dear Silence Thieves (2014):




Sound Of Silence 2014 | No Sound Without Silence 2014 | Thieves | Thief Of Thieves 020 | Thief Of Thieves | Honour Among Thieves | The Princess Of Thieves | The Audio Thieves | The Prince Of Thieves | The Commonwealth Of Thieves
Dan Patlansky - Dear Silence Thieves (2014) Torrent Download with keygen, crack, serial, dvdrip, hdrip, HD, 720p, 1024p, 2016, 2015