Faith Hill - The Hits (2007)

New Download Links
Speed
 kbps
 kbps
 kbps

Faith Hill - The Hits (2007)
EAC-Rip | APE-image +cue +log +Scans | October 2, 2007 | 397 MB
Genre: Country, Pop | Label: Warner Bros. | Fserve, Fsonic

Six albums into her career, Faith Hill already has more than enough hit singles to fill a best-of album, so this 15 track compilation is a fine summation of her career up to 2007. Containing seven number-one country hits, many of which crossed over to the pop charts, HITS is a fine argument for Faith Hill as one of the top country singers of her time. From pop crossover smashes like "This Kiss" and "Breathe" to more traditional country songs like "Mississippi Girl" and "The Way You Love Me," HITS is a solidly entertaining listen. However, for good measure, HITS also adds three live songs--the Janis Joplin standard "Piece of My Heart," "There Will Come A Day," and "Cry"--as well as one solid new single, "Beautiful." Tastefully packaged and intelligently sequenced as well as musically unbeatable, HITS is a textbook example of how to do a mid-career best-of collection, and is far more listenable than the average uninspired cash-in.

Tracklist:

01. Red Umbrella
02. Stronger (Live)
03. I Need You
04. Lost
05. Mississippi Girl
06. Cry
07. There You'll Be
08. The Way You Love Me
09. Breathe
10. The Secret Of Life
11. Let Me Let Go
12. This Kiss
13. It Matters To Me
14. Piece Of My Heart
15. Wild One

EAC LOG
Exact Audio Copy V0.99 prebeta 5 from 4. May 2009

Отчёт EAC об извлечении, выполненном 11. июня 2009, 17:49

Faith Hill / The Hits

Дисковод: SONY DVD RW DW-G120A Adapter: 0 ID: 0

Режим чтения : Достоверность
Использование точного потока : Да
Отключение кэша аудио : Да
Использование указателей C2 : Нет

Коррекция смещения при чтении : 6
Способность читать области Lead-in и Lead-out : Нет
Заполнение пропущенных сэмплов тишиной : Да
Удаление блоков с тишиной в начале и конце : Нет
При вычислениях CRC использовались нулевые сэмплы : Нет
Интерфейс : Встроенный Win32-интерфейс для Win NT/2000

Выходной формат : Внутренние WAV-операции
Формат сэмплов : 44.100 Гц; 16 бит; стерео

TOC извлечённого CD

Трек | Старт | Длительность | Начальный сектор | Конечный сектор
---------------------------------------------------------------------
1 | 0:00.00 | 3:39.44 | 0 | 16468
2 | 3:39.44 | 6:15.32 | 16469 | 44625
3 | 9:55.01 | 4:08.54 | 44626 | 63279
4 | 14:03.55 | 4:11.28 | 63280 | 82132
5 | 18:15.08 | 3:52.73 | 82133 | 99605
6 | 22:08.06 | 3:47.73 | 99606 | 116703
7 | 25:56.04 | 3:41.51 | 116704 | 133329
8 | 29:37.55 | 3:28.73 | 133330 | 149002
9 | 33:06.53 | 4:08.13 | 149003 | 167615
10 | 37:14.66 | 4:15.20 | 167616 | 186760
11 | 41:30.11 | 4:25.19 | 186761 | 206654
12 | 45:55.30 | 3:15.28 | 206655 | 221307
13 | 49:10.58 | 3:18.35 | 221308 | 236192
14 | 52:29.18 | 4:01.63 | 236193 | 254330
15 | 56:31.06 | 2:47.00 | 254331 | 266855

Характеристики диапазона извлечения и сообщения об ошибках

Выбранный диапазон

Имя файла C:DownloadsFaith Hill - The HitsFaith Hill - The Hits.wav

Пиковый уровень 100.0 %
Качество диапазона 99.9 %
CRC копии 525116DB
Копирование... OK

Ошибок не произошло

AccurateRip: сводка

Трек 1 точное извлечение (доверие 32) [94F6438B]
Трек 2 точное извлечение (доверие 31) [072BFA35]
Трек 3 точное извлечение (доверие 31) [5DCE6E81]
Трек 4 точное извлечение (доверие 31) [7DA8C719]
Трек 5 точное извлечение (доверие 31) [2D87DCDF]
Трек 6 точное извлечение (доверие 32) [15ABF289]
Трек 7 точное извлечение (доверие 32) [41A2C9DA]
Трек 8 точное извлечение (доверие 32) [575BED75]
Трек 9 точное извлечение (доверие 32) [10C1C120]
Трек 10 точное извлечение (доверие 32) [8624B373]
Трек 11 точное извлечение (доверие 31) [E5F75B08]
Трек 12 точное извлечение (доверие 31) [44F7FCC6]
Трек 13 точное извлечение (доверие 31) [CBD17CB6]
Трек 14 точное извлечение (доверие 32) [3891D021]
Трек 15 точное извлечение (доверие 32) [733B225E]

Все треки извлечены точно

Конец отчёта

Download Faith Hill - The Hits (2007):

Fileserve.com:
Part 1 | Part 2

Filesonic.com
Part 1 | Part 2

Pass: avaxhome.ws

All thanks go to the original Publicist "Red Pepper"

If you'll find that my links are dead please let me know through the Private Messages.

Please DO NOT MIRROR


Faith Hill Cry | Faith Hill Holiday | Faith No More Greatest Hits | Dan Hill Hits | Cypress Hill Hits From The Bong | Cypress Hill Greatest Hits | Hits Of 2007 | Top 100 Hits 2007 | 538 Dance Smash Hits 2007 | Dance Smash Hits 2007
Faith Hill - The Hits (2007) Torrent Download with keygen, crack, serial, dvdrip, hdrip, HD, 720p, 1024p, 2016, 2015