The Animals - The Complete Animals (1990) 2CD

New Download Links
Speed
 kbps
 kbps
 kbps

The Animals - The Complete Animals (1990) 2CD
EAC | FLAC | Image (Cue&Log) ~ 466 Mb (incl 5%) | Mp3 (CBR320) ~ 344 Mb (incl 5%) | Scans included
Genre: Rock, Blues Rock, Rhythm & Blues, Rock & Roll, British Invasion | Label: EMI | # CDS 79 4613 2 | Time: 02:05:51

The title is a bit of a misnomer; this double CD only includes the complete sessions that the Animals recorded with producer Mickie Most in 1964 and 1965. The 40 songs capture the band at their peak, including most of their best and biggest hits: "House of the Rising Sun," "Don't Let Me Be Misunderstood," "Bring It on Home to Me," "We Gotta Get Out of This Place," "I'm Crying," "It's My Life," and "Boom Boom." Most of the rest of the tunes don't match the excellence of these smashes, though they're solid. The great majority of them are covers of vintage R&B/rock tunes by Chuck Berry, Fats Domino, and the like, which aren't quite as durable as reinterpretations from the same era by the Stones and Yardbirds. When they hit the mark, though, the Animals produced some great album tracks that have been mostly forgotten by time, such as "I'm Mad Again" (originally by John Lee Hooker), "Worried Life Blues," and "Bury My Body." After leaving Most, the group would maintain their peak for another year or so (this period is represented on the fine import collection Inside Looking Out) despite the departure of one of rock's all-time finest organists, Alan Price. This compilation has everything that Price recorded with the group, including four previously unreleased cuts and the non-LP Eric Burdon original on the B-side of "It's My Life," "I'm Gonna Change the World."

Review by Richie Unterberger, Allmusic.com





Tracklist:

CD1:

01. Boom Boom (03:20)
02. Talkin' 'Bout You (Full Version) (07:06)
03. Blue Feeling (Previously Unreleasaed In The UK) (02:33)
04. Dimples (02:53)
05. Baby Let Me Take You Home (02:23)
06. Gonna Send You Back To Walker (02:30)
07. Baby What's Wrong (Previously Unreleased) (02:51)
08. The House Of The Rising Sun (04:32)
09. F-E-E-L (Previously Unreleased) (02:44)
10. I'm Mad Again (04:18)
11. The Right Time (03:47)
12. Around And Around (02:47)
13. I'm In Love Again (03:03)
14. Bury My Body (02:52)
15. She Said Yeah (02:21)
16. I'm Crying (02:49)
17. Take It Easy (02:55)
18. The Story Of Bo Diddley (05:45)
19. The Girl Can't Help It (02:23)
20. I've Been Around (01:36)

CD2:

01. Memphis Tennessee (03:08)
02. Don't Let Me Be Misunderstood (02:30)
03. Club-A-Gogo (02:22)
04. Roadrunner (02:50)
05. Hallelujah I Love Her So (02:48)
06. Don't Want Much (Previously Unreleased) (03:25)
07. I Believe To My Soul (03:26)
08. Let The Good Times Roll (01:57)
09. Mess Around (02:22)
10. How You've Changed (03:14)
11. I Ain't Got You (02:31)
12. Roberta (02:07)
13. Bright Lights Big City (02:57)
14. Worried Life Blues (04:13)
15. Bring It On Home To Me (02:45)
16. For Miss Caulker (03:59)
17. I Can't Believe It (03:33)
18. We've Gotta Get Out Of This Place (03:15)
19. It's My Life (03:09)
20. I'm Gonna Change The World - New Year Radio Spot (03:34)


EAC log CD1
Exact Audio Copy V1.0 beta 6 from 9. April 2015

Отчёт EAC об извлечении, выполненном 21. июня 2015, 13:02

The Animals / The Complete Animals - CD 1

Дисковод: SONY CD-RW CRX230ED Adapter: 1 ID: 0

Режим чтения : Достоверность
Использование точного потока : Да
Отключение кэша аудио : Да
Использование указателей C2 : Нет

Коррекция смещения при чтении : 6
Способность читать области Lead-in и Lead-out : Нет
Заполнение пропущенных сэмплов тишиной : Да
Удаление блоков с тишиной в начале и конце : Нет
При вычислениях CRC использовались нулевые сэмплы : Да
Интерфейс : Встроенный Win32-интерфейс для Win NT/2000

Выходной формат : Внутренние WAV-операции
Формат сэмплов : 44.100 Гц; 16 бит; стерео TOC извлечённого CD

Трек | Старт | Длительность | Начальный сектор | Конечный сектор
---------------------------------------------------------------------
1 | 0:00.33 | 3:20.70 | 33 | 15102
2 | 3:21.28 | 7:06.07 | 15103 | 47059
3 | 10:27.35 | 2:33.63 | 47060 | 58597
4 | 13:01.23 | 2:53.20 | 58598 | 71592
5 | 15:54.43 | 2:23.20 | 71593 | 82337
6 | 18:17.63 | 2:30.37 | 82338 | 93624
7 | 20:48.25 | 2:51.15 | 93625 | 106464
8 | 23:39.40 | 4:32.18 | 106465 | 126882
9 | 28:11.58 | 2:44.15 | 126883 | 139197
10 | 30:55.73 | 4:18.07 | 139198 | 158554
11 | 35:14.05 | 3:47.35 | 158555 | 175614
12 | 39:01.40 | 2:47.10 | 175615 | 188149
13 | 41:48.50 | 3:03.53 | 188150 | 201927
14 | 44:52.28 | 2:52.50 | 201928 | 214877
15 | 47:45.03 | 2:21.60 | 214878 | 225512
16 | 50:06.63 | 2:49.22 | 225513 | 238209
17 | 52:56.10 | 2:55.08 | 238210 | 251342
18 | 55:51.18 | 5:45.65 | 251343 | 277282
19 | 61:37.08 | 2:23.37 | 277283 | 288044
20 | 64:00.45 | 1:36.55 | 288045 | 295299 Характеристики диапазона извлечения и сообщения об ошибках

Выбранный диапазон

Имя файла F:MusicCDTorrentThe Animals - The Complete AnimalsThe Animals - The Complete Animals - CD 1.wav

Пиковый уровень 99.6 %
Скорость извлечения 8.5 X
Качество диапазона 100.0 %
CRC теста C6B9EB51
CRC копии C6B9EB51
Копирование... OK

Ошибок не произошло


AccurateRip: сводка

Трек 1 : извлечено точно (доверие 61) [372BD1BD] (AR v2)
Трек 2 : извлечено точно (доверие 62) [739AEE35] (AR v2)
Трек 3 : извлечено точно (доверие 59) [9DB5ECAF] (AR v2)
Трек 4 : извлечено точно (доверие 59) [0DCCD76F] (AR v2)
Трек 5 : извлечено точно (доверие 61) [BE5CC8EF] (AR v2)
Трек 6 : извлечено точно (доверие 60) [6DF5ED13] (AR v2)
Трек 7 : извлечено точно (доверие 60) [89173254] (AR v2)
Трек 8 : извлечено точно (доверие 62) [D0E661A5] (AR v2)
Трек 9 : извлечено точно (доверие 60) [5E00521E] (AR v2)
Трек 10 : извлечено точно (доверие 59) [6C19C2D3] (AR v2)
Трек 11 : извлечено точно (доверие 59) [909E48D3] (AR v2)
Трек 12 : извлечено точно (доверие 60) [BE63F913] (AR v2)
Трек 13 : извлечено точно (доверие 57) [68B2EEC1] (AR v2)
Трек 14 : извлечено точно (доверие 55) [EA30F8AE] (AR v2)
Трек 15 : извлечено точно (доверие 56) [8A3908DD] (AR v2)
Трек 16 : извлечено точно (доверие 57) [E64D2E6C] (AR v2)
Трек 17 : извлечено точно (доверие 56) [EBAA4E03] (AR v2)
Трек 18 : извлечено точно (доверие 53) [8C9145E3] (AR v2)
Трек 19 : извлечено точно (доверие 55) [8C057863] (AR v2)
Трек 20 : извлечено точно (доверие 55) [EF4CC5F5] (AR v2)

Все треки извлечены точно

Конец отчёта

---- CUETools DB Plugin V2.1.6

[CTDB TOCID: NdFPfi.jGrWw16iYD38QPXWbr1Y-] found
Submit result: NdFPfi.jGrWw16iYD38QPXWbr1Y- has been confirmed
Track | CTDB Status
1 | (22/23) Accurately ripped
2 | (22/23) Accurately ripped
3 | (22/23) Accurately ripped
4 | (22/23) Accurately ripped
5 | (22/23) Accurately ripped
6 | (22/23) Accurately ripped
7 | (22/23) Accurately ripped
8 | (22/23) Accurately ripped
9 | (22/23) Accurately ripped
10 | (22/23) Accurately ripped
11 | (22/23) Accurately ripped
12 | (22/23) Accurately ripped
13 | (21/23) Accurately ripped
14 | (22/23) Accurately ripped
15 | (21/23) Accurately ripped
16 | (22/23) Accurately ripped
17 | (22/23) Accurately ripped
18 | (18/23) Accurately ripped, or (1/23) differs in 4 samples @01:43:62
19 | (20/23) Accurately ripped
20 | (20/23) Accurately ripped ==== Контрольная сумма отчёта 0A793AB1D849F0C46877E0C397BDA8657E025C8DCCFF714DE27B19C171E3B41C ====

DR log CD1
foobar2000 1.2 / Dynamic Range Meter 1.1.1
log date: 2015-06-21 17:08:03

--------------------------------------------------------------------------------
Analyzed: The Animals / The Complete Animals - CD 1
--------------------------------------------------------------------------------

DR Peak RMS Duration Track
--------------------------------------------------------------------------------
DR10 -0.03 dB -12.42 dB 3:21 01-Boom Boom
DR10 -0.03 dB -11.83 dB 7:06 02-Talkin' 'Bout You (Full Version)
DR10 -0.03 dB -11.46 dB 2:34 03-Blue Feeling (Previously Unreleasaed In The UK)
DR10 -0.18 dB -12.01 dB 2:53 04-Dimples
DR10 -0.03 dB -11.30 dB 2:23 05-Baby Let Me Take You Home
DR10 -0.03 dB -11.55 dB 2:30 06-Gonna Send You Back To Walker
DR11 -0.03 dB -12.81 dB 2:51 07-Baby What's Wrong (Previously Unreleased)
DR10 -0.03 dB -12.16 dB 4:32 08-The House Of The Rising Sun
DR11 -0.03 dB -12.57 dB 2:44 09-F-E-E-L (Previously Unreleased)
DR12 -0.03 dB -14.36 dB 4:18 10-I'm Mad Again
DR11 -0.03 dB -12.24 dB 3:47 11-The Right Time
DR12 -0.03 dB -13.88 dB 2:47 12-Around And Around
DR12 -0.27 dB -13.89 dB 3:04 13-I'm In Love Again
DR13 -0.03 dB -14.89 dB 2:53 14-Bury My Body
DR11 -0.07 dB -13.37 dB 2:22 15-She Said Yeah
DR12 -0.03 dB -13.77 dB 2:49 16-I'm Crying
DR12 -0.03 dB -13.78 dB 2:55 17-Take It Easy
DR12 -0.03 dB -13.73 dB 5:46 18-The Story Of Bo Diddley
DR10 -0.03 dB -12.45 dB 2:23 19-The Girl Can't Help It
DR12 -0.03 dB -13.02 dB 1:37 20-I've Been Around
--------------------------------------------------------------------------------

Number of tracks: 20
Official DR value: DR11

Samplerate: 44100 Hz
Channels: 2
Bits per sample: 16
Bitrate: 456 kbps
Codec: FLAC
================================================================================


EAC log CD2
Exact Audio Copy V1.0 beta 6 from 9. April 2015

Отчёт EAC об извлечении, выполненном 21. июня 2015, 13:21

The Animals / The Complete Animals - CD 2

Дисковод: SONY CD-RW CRX230ED Adapter: 1 ID: 0

Режим чтения : Достоверность
Использование точного потока : Да
Отключение кэша аудио : Да
Использование указателей C2 : Нет

Коррекция смещения при чтении : 6
Способность читать области Lead-in и Lead-out : Нет
Заполнение пропущенных сэмплов тишиной : Да
Удаление блоков с тишиной в начале и конце : Нет
При вычислениях CRC использовались нулевые сэмплы : Да
Интерфейс : Встроенный Win32-интерфейс для Win NT/2000

Выходной формат : Внутренние WAV-операции
Формат сэмплов : 44.100 Гц; 16 бит; стерео TOC извлечённого CD

Трек | Старт | Длительность | Начальный сектор | Конечный сектор
---------------------------------------------------------------------
1 | 0:00.33 | 3:08.37 | 33 | 14169
2 | 3:08.70 | 2:30.20 | 14170 | 25439
3 | 5:39.15 | 2:22.23 | 25440 | 36112
4 | 8:01.38 | 2:50.65 | 36113 | 48927
5 | 10:52.28 | 2:48.57 | 48928 | 61584
6 | 13:41.10 | 3:25.18 | 61585 | 76977
7 | 17:06.28 | 3:26.62 | 76978 | 92489
8 | 20:33.15 | 1:57.00 | 92490 | 101264
9 | 22:30.15 | 2:22.03 | 101265 | 111917
10 | 24:52.18 | 3:14.65 | 111918 | 126532
11 | 28:07.08 | 2:31.07 | 126533 | 137864
12 | 30:38.15 | 2:07.08 | 137865 | 147397
13 | 32:45.23 | 2:57.12 | 147398 | 160684
14 | 35:42.35 | 4:13.50 | 160685 | 179709
15 | 39:56.10 | 2:45.65 | 179710 | 192149
16 | 42:42.00 | 3:59.55 | 192150 | 210129
17 | 46:41.55 | 3:33.38 | 210130 | 226142
18 | 50:15.18 | 3:15.55 | 226143 | 240822
19 | 53:30.73 | 3:09.27 | 240823 | 255024
20 | 56:40.25 | 3:34.28 | 255025 | 271102 Характеристики диапазона извлечения и сообщения об ошибках

Выбранный диапазон

Имя файла F:MusicCDTorrentThe Animals - The Complete AnimalsThe Animals - The Complete Animals - CD 2.wav

Пиковый уровень 99.6 %
Скорость извлечения 7.9 X
Качество диапазона 100.0 %
CRC теста 8DF36EB3
CRC копии 8DF36EB3
Копирование... OK

Ошибок не произошло


AccurateRip: сводка

Трек 1 : извлечено точно (доверие 60) [45CC28F2] (AR v2)
Трек 2 : извлечено точно (доверие 62) [B2504ACE] (AR v2)
Трек 3 : извлечено точно (доверие 60) [6889ADB2] (AR v2)
Трек 4 : извлечено точно (доверие 60) [37EAC6BE] (AR v2)
Трек 5 : извлечено точно (доверие 60) [88A1DB60] (AR v2)
Трек 6 : извлечено точно (доверие 60) [AF39CA84] (AR v2)
Трек 7 : извлечено точно (доверие 59) [A4913BE9] (AR v2)
Трек 8 : извлечено точно (доверие 60) [C90683CD] (AR v2)
Трек 9 : извлечено точно (доверие 60) [2B7E6735] (AR v2)
Трек 10 : извлечено точно (доверие 59) [3BC4AC32] (AR v2)
Трек 11 : извлечено точно (доверие 58) [BF611998] (AR v2)
Трек 12 : извлечено точно (доверие 58) [5D7CE1BA] (AR v2)
Трек 13 : извлечено точно (доверие 59) [CC6269A2] (AR v2)
Трек 14 : извлечено точно (доверие 56) [06C19753] (AR v2)
Трек 15 : извлечено точно (доверие 60) [4EB8E19B] (AR v2)
Трек 16 : извлечено точно (доверие 58) [FFA99434] (AR v2)
Трек 17 : извлечено точно (доверие 59) [5B18AECC] (AR v2)
Трек 18 : извлечено точно (доверие 60) [5EDDA7B1] (AR v2)
Трек 19 : извлечено точно (доверие 60) [650AD850] (AR v2)
Трек 20 : извлечено точно (доверие 58) [FF4C174C] (AR v2)

Все треки извлечены точно

Конец отчёта

---- CUETools DB Plugin V2.1.6

[CTDB TOCID: AK8WE0U8CX2Zx7KTSBj6f1tcn.4-] found
Submit result: AK8WE0U8CX2Zx7KTSBj6f1tcn.4- has been confirmed
Track | CTDB Status
1 | (24/24) Accurately ripped
2 | (24/24) Accurately ripped
3 | (24/24) Accurately ripped
4 | (24/24) Accurately ripped
5 | (24/24) Accurately ripped
6 | (24/24) Accurately ripped
7 | (24/24) Accurately ripped
8 | (24/24) Accurately ripped
9 | (24/24) Accurately ripped
10 | (24/24) Accurately ripped
11 | (24/24) Accurately ripped
12 | (24/24) Accurately ripped
13 | (24/24) Accurately ripped
14 | (24/24) Accurately ripped
15 | (24/24) Accurately ripped
16 | (24/24) Accurately ripped
17 | (24/24) Accurately ripped
18 | (24/24) Accurately ripped
19 | (23/24) Accurately ripped
20 | (21/24) Accurately ripped ==== Контрольная сумма отчёта 02334E3CECADF3B91B0A08FF7FB619BC2E0E58D208509E5824C162F79FA855C3 ====

DR log CD2
foobar2000 1.2 / Dynamic Range Meter 1.1.1
log date: 2015-06-21 17:08:17

--------------------------------------------------------------------------------
Analyzed: The Animals / The Complete Animals - CD 2
--------------------------------------------------------------------------------

DR Peak RMS Duration Track
--------------------------------------------------------------------------------
DR10 -0.03 dB -11.41 dB 3:08 01-Memphis Tennessee
DR10 -0.03 dB -12.55 dB 2:30 02-Don't Let Me Be Misunderstood
DR10 -0.03 dB -12.53 dB 2:22 03-Club-A-Gogo
DR9 -0.03 dB -11.10 dB 2:51 04-Roadrunner
DR10 -0.03 dB -11.50 dB 2:49 05-Hallelujah I Love Her So
DR9 -0.03 dB -11.72 dB 3:25 06-Don't Want Much (Previously Unreleased)
DR10 -0.03 dB -13.40 dB 3:27 07-I Believe To My Soul
DR11 -0.03 dB -12.42 dB 1:57 08-Let The Good Times Roll
DR9 -0.03 dB -10.98 dB 2:22 09-Mess Around
DR11 -0.03 dB -13.17 dB 3:15 10-How You've Changed
DR11 -0.03 dB -11.82 dB 2:31 11-I Ain't Got You
DR7 -0.03 dB -9.34 dB 2:07 12-Roberta
DR9 -0.03 dB -11.57 dB 2:57 13-Bright Lights Big City
DR9 -0.03 dB -11.97 dB 4:14 14-Worried Life Blues
DR9 -1.50 dB -13.41 dB 2:46 15-Bring It On Home To Me
DR11 -0.03 dB -14.36 dB 4:00 16-For Miss Caulker
DR11 -0.90 dB -14.42 dB 3:34 17-I Can't Believe It
DR10 -0.09 dB -13.09 dB 3:16 18-We've Gotta Get Out Of This Place
DR10 -0.29 dB -12.48 dB 3:09 19-It's My Life
DR8 -0.03 dB -9.75 dB 3:34 20-I'm Gonna Change The World - New Year Radio Spot
--------------------------------------------------------------------------------

Number of tracks: 20
Official DR value: DR10

Samplerate: 44100 Hz
Channels: 2
Bits per sample: 16
Bitrate: 441 kbps
Codec: FLAC
================================================================================



All thanks to original releaser - squirr






The Animals | Animals | For The Animals | We The Animals | The New Animals | The Animals Iso | When Animals Attack | Maroon 5 Animals | World Of Animals | Scrap Animals
The Animals - The Complete Animals (1990) 2CD Torrent Download with keygen, crack, serial, dvdrip, hdrip, HD, 720p, 1024p, 2016, 2015