Rod Piazza & The Mighty Flyers Blues Quartet - Soul Monster (2009)

New Download Links
Speed
 kbps
 kbps
 kbps

Rod Piazza & The Mighty Flyers Blues Quartet - Soul Monster (2009)
EAC | FLAC | Tracks (Cue&Log) ~ 404 Mb (incl 5%) | Mp3 (CBR320) ~ 165 Mb (incl 5%) | Scans included
Genre: Electric Harmonica Blues, Modern Electric Blues | Label: Delta Groove Music | # DGPCD134 | Time: 00:54:04

Soul Monster is Piazza's 24th album and 3rd release for Delta Groove. Over the last 44 years of playing music Piazza's virtuosity on the harmonica and respect for tradition has been celebrated by fans and critics alike. The Mighty Flyers have taken home the Blues Music Award for Band of the Year no less than 4 times and Rod himself was honored with a BMA for Instrumentalist of the Year in '98. Last year band member Honey Piazza took home her first BMA for the 2008 Pinetop Perkins Piano Player of the Year. Interplay, spontaneity, and classic chops are what have kept the Mighty Flyers soaring above... and it's all here! Rest assured that Piazza & company deliver on a winning formula; a tantalizing recipe that's been brewing for decades.


Rod Piazza has been leading the Mighty Flyers since the early '80s, and on this, his fourth album, he's still doing what he does best, making down-and-dirty music that pays tribute to the bluesmen of the past while delivering choice originals that may one day be considered as highly as the standards they tackle. Case in point, "Cheap Wine," by Rod and his wife, pianist Honey, is a second-line stomp that pays tribute to low-rent thrills. Honey's strutting piano and Rod's harp complement the polyrhythmic groove of drummer Dave Kida, while Rod turns in a loose, boozy vocal. "Tell Me About It Sam" is a remake of a tune called "Blues in 92" played as a tribute to Rod's pal Sam Meyers who passed in 2006. Its lyric about the inevitability of hard times and tight money sounds even more timely in 2009; Rod's harp solo is big, bold, and blue, and his singing's full of anger and anguish. Honey's piano work is just as dazzling, with fast right-hand runs tossing of sparks to highlight her husband's deep blue tone. Two instrumentals let the band show off their considerable chops: "Expression Session" is a shuffle that displays Rod's playful side, with Henry Carvajal's guitar trading phrases with Rod as the tune closes, while the title track is a slow, grinding, gritty blues marked by Rod's gruff harp and Carvajal's clanging, chattering guitar. The covers span the entire history of the blues starting with Big Bill Broonzy's "Key to the Highway," a secular spiritual that's played here as a slow shuffle marked by Rod's weary vocal, Honey's late-night piano arpeggios, and Carvajal's measured rhythm work. Jimmy Liggins' "That's What's Knockin' Me Out" is given a gentle swing treatment while the Piazzas duet on the early rock & roll standard "Ko Ko Mo." Carvajal sings lead on "Talk to Me," a hit for Little Willie John in 1958, bringing the same soulful, tear-drenched tone to his performance that made the original so affecting.

Review by Allmusic.com


Rod Piazza at Allmusic
Rod Piazza Website
Rod Piazza at Wiki

Tracklist:

01. Soul Monster (03:54)
02. Can't Stand To See You Go (03:36)
03. Cheap Wine (05:15)
04. Key To The Highway (04:27)
05. Sunbird (04:02)
06. That's What's Knockin' Me Out (03:21)
07. Tell Me About It Sam (05:36)
08. Queen Bee (04:08)
09. Expression Session (02:54)
10. Ko Ko Mo (I Love You So) (04:24)
11. Talk To Me (04:36)
12. You Better Watch Yourself (03:28)
13. Hey, Mrs. Jones (04:15)


EAC log
Exact Audio Copy V0.99 prebeta 4 from 23. January 2008

EAC extraction logfile from 21. July 2009, 22:09

Rod Piazza and the Mighty Flyers Blues Quartet / Soul Monster

Used drive : PLEXTOR CD-R PX-230A Adapter: 1 ID: 1

Read mode : Secure
Utilize accurate stream : Yes
Defeat audio cache : Yes
Make use of C2 pointers : No

Read offset correction : 738
Overread into Lead-In and Lead-Out : No
Fill up missing offset samples with silence : Yes
Delete leading and trailing silent blocks : No
Null samples used in CRC calculations : Yes
Used interface : Installed external ASPI interface
Gap handling : Appended to previous track

Used output format : User Defined Encoder
Selected bitrate : 1024 kBit/s
Quality : High
Add ID3 tag : No
Command line compressor : C:Program FilesExact Audio CopyFLACFLAC.EXE
Additional command line options : -6 -V -T "ARTIST=%a" -T "TITLE=%t" -T "ALBUM=%g" -T "DATE=%y" -T "TRACKNUMBER=%n" -T "GENRE=%m" -T "COMMENT=%e" %s -o %d TOC of the extracted CD

Track | Start | Length | Start sector | End sector
---------------------------------------------------------
1 | 0:00.00 | 3:54.29 | 0 | 17578
2 | 3:54.29 | 3:36.15 | 17579 | 33793
3 | 7:30.44 | 5:15.73 | 33794 | 57491
4 | 12:46.42 | 4:27.34 | 57492 | 77550
5 | 17:14.01 | 4:02.55 | 77551 | 95755
6 | 21:16.56 | 3:21.71 | 95756 | 110901
7 | 24:38.52 | 5:36.73 | 110902 | 136174
8 | 30:15.50 | 4:08.55 | 136175 | 154829
9 | 34:24.30 | 2:54.23 | 154830 | 167902
10 | 37:18.53 | 4:24.34 | 167903 | 187736
11 | 41:43.12 | 4:36.45 | 187737 | 208481
12 | 46:19.57 | 3:28.21 | 208482 | 224102
13 | 49:48.03 | 4:15.58 | 224103 | 243285 Track 1

Filename J:Rips1 - Soul Monster.wav

Pre-gap length 0:00:02.00

Peak level 100.0 %
Track quality 100.0 %
Test CRC CAC36C1A
Copy CRC CAC36C1A
Accurately ripped (confidence 1) [DA3090D0]
Copy OK

Track 2

Filename J:Rips2 - Can't Stand To See You Go.wav

Pre-gap length 0:00:01.38

Peak level 100.0 %
Track quality 100.0 %
Test CRC 8B2DC98A
Copy CRC 8B2DC98A
Accurately ripped (confidence 1) [92142295]
Copy OK

Track 3

Filename J:Rips3 - Cheap Wine.wav

Pre-gap length 0:00:01.63

Peak level 100.0 %
Track quality 100.0 %
Test CRC 98CDA85B
Copy CRC 98CDA85B
Accurately ripped (confidence 1) [1FAF6860]
Copy OK

Track 4

Filename J:Rips4 - Key To The Highway.wav

Pre-gap length 0:00:01.22

Peak level 100.0 %
Track quality 100.0 %
Test CRC F6666FE0
Copy CRC F6666FE0
Accurately ripped (confidence 1) [4B0278FB]
Copy OK

Track 5

Filename J:Rips5 - Sunbird.wav

Pre-gap length 0:00:01.18

Peak level 100.0 %
Track quality 99.9 %
Test CRC 85268C46
Copy CRC 85268C46
Accurately ripped (confidence 1) [30DA342F]
Copy OK

Track 6

Filename J:Rips6 - That's What's Knockin' Me Out.wav

Pre-gap length 0:00:01.72

Peak level 100.0 %
Track quality 100.0 %
Test CRC DBFE704D
Copy CRC DBFE704D
Accurately ripped (confidence 1) [717C23A1]
Copy OK

Track 7

Filename J:Rips7 - Tell Me About It Sam.wav

Pre-gap length 0:00:01.36

Peak level 100.0 %
Track quality 100.0 %
Test CRC BB3958A3
Copy CRC BB3958A3
Accurately ripped (confidence 1) [D165FFD1]
Copy OK

Track 8

Filename J:Rips8 - Queen Bee.wav

Pre-gap length 0:00:02.14

Peak level 100.0 %
Track quality 99.9 %
Test CRC AFFD98EE
Copy CRC AFFD98EE
Accurately ripped (confidence 1) [E6503E8F]
Copy OK

Track 9

Filename J:Rips9 - Expression Session.wav

Pre-gap length 0:00:01.16

Peak level 100.0 %
Track quality 100.0 %
Test CRC D8EA9FEB
Copy CRC D8EA9FEB
Accurately ripped (confidence 1) [E44C6565]
Copy OK

Track 10

Filename J:Rips10 - Ko Ko Mo (I Love You So).wav

Pre-gap length 0:00:01.59

Peak level 100.0 %
Track quality 100.0 %
Test CRC 6705332C
Copy CRC 6705332C
Accurately ripped (confidence 1) [DD547AB1]
Copy OK

Track 11

Filename J:Rips11 - Talk To Me.wav

Pre-gap length 0:00:01.34

Peak level 100.0 %
Track quality 99.9 %
Test CRC B1B1CC6C
Copy CRC B1B1CC6C
Accurately ripped (confidence 1) [774E5B40]
Copy OK

Track 12

Filename J:Rips12 - You Better Watch Yourself.wav

Pre-gap length 0:00:01.47

Peak level 100.0 %
Track quality 100.0 %
Test CRC 978B704D
Copy CRC 978B704D
Accurately ripped (confidence 1) [AE6D627D]
Copy OK

Track 13

Filename J:Rips13 - Hey, Mrs. Jones.wav

Pre-gap length 0:00:02.27

Peak level 100.0 %
Track quality 100.0 %
Test CRC 12B012CE
Copy CRC 12B012CE
Accurately ripped (confidence 1) [EF948061]
Copy OK All tracks accurately ripped

No errors occurred

End of status report

DR log
foobar2000 1.2 / Dynamic Range Meter 1.1.1
log date: 2015-06-21 17:39:35

--------------------------------------------------------------------------------
Analyzed: Rod Piazza and the Mighty Flyers Blues Quartet / Soul Monster
--------------------------------------------------------------------------------

DR Peak RMS Duration Track
--------------------------------------------------------------------------------
DR8 0.00 dB -8.71 dB 3:54 01-Soul Monster
DR8 0.00 dB -8.52 dB 3:36 02-Can't Stand To See You Go
DR8 0.00 dB -8.67 dB 5:16 03-Cheap Wine
DR8 0.00 dB -9.41 dB 4:27 04-Key To The Highway
DR7 0.00 dB -8.06 dB 4:03 05-Sunbird
DR8 0.00 dB -9.66 dB 3:22 06-That's What's Knockin' Me Out
DR8 0.00 dB -9.28 dB 5:37 07-Tell Me About It Sam
DR8 0.00 dB -9.08 dB 4:09 08-Queen Bee
DR7 0.00 dB -8.01 dB 2:54 09-Expression Session
DR8 0.00 dB -9.15 dB 4:24 10-Ko Ko Mo (I Love You So)
DR8 0.00 dB -9.10 dB 4:37 11-Talk To Me
DR8 0.00 dB -8.40 dB 3:28 12-You Better Watch Yourself
DR9 0.00 dB -9.51 dB 4:16 13-Hey, Mrs. Jones
--------------------------------------------------------------------------------

Number of tracks: 13
Official DR value: DR8

Samplerate: 44100 Hz
Channels: 2
Bits per sample: 16
Bitrate: 798 kbps
Codec: FLAC
================================================================================



All thanks to original releaser - pмх222






The Light In The Piazza | Orchestra Di Piazza Vittorio | Flyers Ads | Flyers | Flyers Template | Party Flyers | Family Fun Day Flyers | Flyers Red Army | Photography Flyers | The Land Before Time Xii The Great Day Of The Flyers
Rod Piazza & The Mighty Flyers Blues Quartet - Soul Monster (2009) Torrent Download with keygen, crack, serial, dvdrip, hdrip, HD, 720p, 1024p, 2016, 2015