Keiko Matsui - Dream Walk (1996)

New Download Links
Speed
 kbps
 kbps
 kbps
Keiko Matsui - Dream Walk (1996) front

Keiko Matsui - Dream Walk (1996)
EAC | Flac(Image) + Cue + Log & MP3 CBR 320Kbps
Countdown Records, 17750-2 | ~ 402 or 147 Mb | Scans Included
Smooth Jazz / New Age

Taking a stroll through Keiko Matsui's musical hypnotherapy session Dream Walk is like entering a funhouse where all previous definitions of contemporary jazz are strikingly distorted, and invention walks on the wild side of East meets West. Crisp melodies have always been at the heart of the keyboardist's best work, only here they come at you as part of the mood, rather than the central theme. Only a handful of the keyboardist's tunes follow conventional linear melodic patterns throughout, and even these are so beautifully enhanced by sweeping orchestral and percussive invention that atmosphere and throbbing, raw twists ultimately win out over predictability. Equal credit for the newly aggressive approach goes to husband/producer Kazu Matsui, whose sonic wizardry surrounds Keiko's silky jazz and new age passageways with curious echoing flavors, enticing soundscapes where almost anything goes, and loose-fitting urban cool. Other out-there touches include Molly Pasutti's sweeping wordless vocals, bass samples by Marcus Miller and John Patitucci chosen over live bass, and Kazu's own shakuhachi. More typical excitement is provided by Paul Taylor's always warm soprano and alto musings.

by Jonathan Widran, AMG

Keiko Matsui


Keiko Matsui - Dream Walk (1996):

Keiko Matsui - Dream Walk (1996) cd

Tracklist:

01. Dream Walk
02. Bridge Over the Stars
03. Children of The Oasis
04. Fire In The Desert
05. Mask
06. Presence Of The Moon
07. Tribal Boat
08. A Cat On The Chimney
09. Passage
10. Valley

EAC Log
Exact Audio Copy V1.0 beta 3 from 29. August 2011

Отчёт EAC об извлечении, выполненном 2. июня 2012, 3:08

Keiko Matsui / Dream Walk

Дисковод: PIONEER DVD-RW DVR-118L Adapter: 0 ID: 0

Режим чтения : Достоверность
Использование точного потока : Да
Отключение кэша аудио : Да
Использование указателей C2 : Нет

Коррекция смещения при чтении : 6
Способность читать области Lead-in и Lead-out : Нет
Заполнение пропущенных сэмплов тишиной : Да
Удаление блоков с тишиной в начале и конце : Нет
При вычислениях CRC использовались нулевые сэмплы : Да
Интерфейс : Встроенный Win32-интерфейс для Win NT/2000

Выходной формат : Пользовательский кодировщик
Выбранный битрейт : 1024 kBit/s
Качество : Высокий
Добавление ID3-тега : Нет
Утилита сжатия : C:Program FilesFLACflac.exe
Дополнительные параметры : -V -8 -T "Date=%year%" -T "Genre=%genre%" %source% TOC извлечённого CD

Трек | Старт | Длительность | Начальный сектор | Конечный сектор
---------------------------------------------------------------------
1 | 10:33.36 | 4:47.62 | 47511 | 69097
2 | 15:21.23 | 4:20.13 | 69098 | 88610
3 | 19:41.36 | 4:38.12 | 88611 | 109472
4 | 24:19.48 | 4:38.28 | 109473 | 130350
5 | 28:58.01 | 4:36.47 | 130351 | 151097
6 | 33:34.48 | 4:17.38 | 151098 | 170410
7 | 37:52.11 | 4:32.07 | 170411 | 190817
8 | 42:24.18 | 4:34.30 | 190818 | 211397
9 | 46:58.48 | 4:24.53 | 211398 | 231250
10 | 51:23.26 | 4:23.32 | 231251 | 251007 Характеристики диапазона извлечения и сообщения об ошибках

Выбранный диапазон

Имя файла J:Раздачи 3Keiko Matsui _ Dream Walk_1996_by ikatsuro.EW8A_Keiko Matsui - Dream Walk.wav

Пиковый уровень 100.0 %
Скорость извлечения 1.1 X
Качество диапазона 99.9 %
CRC теста A80FDAE2
CRC копии A80FDAE2
Копирование... OK

Ошибок не произошло


AccurateRip: сводка

Трек 1 : извлечено точно (доверие 35) [66AAD2FC] (AR v1)
Трек 2 : извлечено точно (доверие 35) [AA85D2AC] (AR v1)
Трек 3 : извлечено точно (доверие 35) [AC1A43E0] (AR v1)
Трек 4 : извлечено точно (доверие 35) [304E7BB5] (AR v1)
Трек 5 : извлечено точно (доверие 34) [EC20E35D] (AR v1)
Трек 6 : извлечено точно (доверие 35) [50C9B8A1] (AR v1)
Трек 7 : извлечено точно (доверие 35) [6F8B5AD4] (AR v1)
Трек 8 : извлечено точно (доверие 35) [B0AABF58] (AR v1)
Трек 9 : извлечено точно (доверие 35) [E4461662] (AR v1)
Трек 10 : извлечено точно (доверие 35) [C36E27D3] (AR v1)

Все треки извлечены точно

Конец отчёта

==== Контрольная сумма отчёта 848FAF885ADA3414E9C255F18F278554C9E69AB66F81812413BF66E9F6A86E1E ====

DR Log
foobar2000 1.2.9 / Dynamic Range Meter 1.1.1
log date: 2015-06-29 23:11:59

--------------------------------------------------------------------------------
Analyzed: Keiko Matsui / Dream Walk
--------------------------------------------------------------------------------

DR Peak RMS Duration Track
--------------------------------------------------------------------------------
DR10 -0.50 dB -11.61 dB 4:48 01-Dream Walk
DR9 -0.54 dB -11.68 dB 4:20 02-Bridge Over the Stars
DR9 -0.55 dB -11.24 dB 4:38 03-Children of The Oasis
DR10 -0.50 dB -12.12 dB 4:38 04-Fire In The Desert
DR10 -0.57 dB -14.23 dB 4:37 05-Mask
DR8 -0.54 dB -11.16 dB 4:18 06-Presence Of The Moon
DR9 -0.56 dB -11.33 dB 4:32 07-Tribal Boat
DR10 -0.55 dB -13.07 dB 4:34 08-A Cat On The Chimney
DR10 -0.54 dB -12.28 dB 4:25 09-Passage
DR11 -0.56 dB -13.82 dB 4:23 10-Valley
--------------------------------------------------------------------------------

Number of tracks: 10
Official DR value: DR10

Samplerate: 44100 Hz
Channels: 2
Bits per sample: 16
Bitrate: 939 kbps
Codec: FLAC

CUETools Log
[CUETools log; Date: 29.06.2015 23:08:10; Version: 2.1.4]
Pregap length 10:33:36.
[CTDB TOCID: xSZ7QDaQAyopWlusbI7s6KerOtw-] found.
Track | CTDB Status
1 | ( 9/13) Accurately ripped
2 | ( 9/13) Accurately ripped
3 | ( 9/13) Accurately ripped
4 | ( 9/13) Accurately ripped
5 | (13/13) Accurately ripped
6 | (13/13) Accurately ripped
7 | ( 9/13) Accurately ripped
8 | ( 9/13) Accurately ripped
9 | ( 9/13) Accurately ripped
10 | (13/13) Accurately ripped
[AccurateRip ID: 00193154-00b94b10-860a990a] found.
Track [ CRC | V2 ] Status
01 [66aad2fc|f537d0ab] (37+30/73) Accurately ripped
02 [aa85d2ac|060f7291] (37+30/73) Accurately ripped
03 [ac1a43e0|0c83aa92] (37+31/74) Accurately ripped
04 [304e7bb5|b3b3859a] (37+31/74) Accurately ripped
05 [ec20e35d|cc94786a] (36+29/71) Accurately ripped
06 [50c9b8a1|180efdbb] (37+30/73) Accurately ripped
07 [6f8b5ad4|2b3af4db] (37+30/73) Accurately ripped
08 [b0aabf58|21ccc8f2] (37+31/74) Accurately ripped
09 [e4461662|b0970678] (37+30/73) Accurately ripped
10 [c36e27d3|5663a923] (37+29/72) Accurately ripped
Offsetted by -71:
01 [2411a38f] (03/73) Accurately ripped
02 [1e043bb1] (03/73) Accurately ripped
03 [fe9418ad] (03/74) Accurately ripped
04 [7c0e69c3] (03/74) Accurately ripped
05 [5056cb4e] (03/71) Accurately ripped
06 [374ac36f] (03/73) Accurately ripped
07 [3b082f95] (03/73) Accurately ripped
08 [c02c865c] (03/74) Accurately ripped
09 [50d27e7f] (03/73) Accurately ripped
10 [f4b568d8] (03/72) Accurately ripped

Track Peak [ CRC32 ] [W/O NULL] [ LOG ]
-- 100,0 [A80FDAE2] [7BD05E8B] CRC32
01 94,3 [9B078113] [7E4D08DA]
02 93,9 [50257DA1] [156F139E]
03 93,8 [1BA49042] [A945D0CB]
04 94,3 [23D42BA7] [BF9CD20B]
05 93,6 [6B1F80C3] [31B494C9]
06 93,9 [4570D4E2] [7E7493ED]
07 93,7 [BCCFEA27] [4F0BDBAA]
08 93,8 [C14C103A] [3D7C9E54]
09 93,9 [83B65C9D] [C026D335]
10 93,7 [26B6FF9A] [8B01636D]

Keiko Matsui - Dream Walk (1996) back

All thanks go to ikatsuro.EW8A

Keiko Matsui in my Blog

Download Keiko Matsui - Dream Walk (1996):




Keiko Matsui Journey To The Heart | The Free Willy Story Keiko S Journey Home | Tangerine Dream Dream Sequence | Susan Boyle I Dream The Dream | Tangerine Dream Dream Mix | A P 1996 | The One That Got Away 1996 | Eye For An Eye 1996 | In The Mix 1996 | The Castle 1996
Keiko Matsui - Dream Walk (1996) Torrent Download with keygen, crack, serial, dvdrip, hdrip, HD, 720p, 1024p, 2016, 2015