The Mule Newman Band - Somethin On My Mind (2015)

New Download Links
Speed
 kbps
 kbps
 kbps

The Mule Newman Band - Somethin' On My Mind (2015)
EAC Rip | FLAC (Img) + Cue + Log ~ 417 Mb | MP3 CBR320 ~ 141 Mb
Scans Included (JPG, 600 dpi) | RAR 5% Recovery
Blues, Rock, Funk, Soul, Blues Gospel | Mule Music #888295230490

Hammond-driven Blues Band with soulful vocals, stinging guitar, stylish harp and groove drums. Dennis Newman began his professional career in music at age twelve as a drummer/singer when he formed a pop group called "The Runaways", and played local events in his hometown of Rye, New York. He later switched from drums to keyboards and founded another rock band, "The Saratoga Wrecking Crew", and performed at high school and college dances. He also took up harmonica and fronted the "Odds ‘n Ends", a rock'n'roll band gigging throughout the New York/New England area.

Newman relocated to Los Angeles and hooked up with various bands, and developed a unique playing style, backing his soulful vocals with swirling Hammond organ and stylish blues harp. In 1995 he released his self-titled debut CD - "Mule Newman", using the nickname he picked up because of his reputation as a hard-working showman who carried a heavy load... a five hundred pound Hammond-Leslie rig, and an even heavier load... of the blues! The CD got extensive airplay worldwide and was critically acclaimed.

In 1997 he teamed with veteran guitarist Don Caplan, solid bassist, Al Seeley, and dynamic drummer Charles Ezelle and percussionist Wayne Mills. In 1999 The Mule Newmand Band released Sea of Blues.
~ cdbaby.com


Track List:

01. Hot Rod Honey [03:31]
02. Kingdom of Heaven [04:16]
03. Wicked Son [03:34]
04. Crooked Palm [02:40]
05. Surfin in the Rain [05:02]
06. She Calls Me Papa [02:48]
07. Slime [04:10]
08. Somethin On My Mind [02:54]
09. Move Me To My Soul [04:16]
10. Dont Let This Moment Pass Us By [04:03]
11. Somewhere Down The Line [05:10]
12. Gone To Oregon [05:32]
13. Gods Country [05:14]

Line-Up:
Dennis Newman – vocals, harmonica, Hammond organ
Mike Hughes – guitar
Al Seeley – bass
Charles Ezelle – drums
Wayne Mills – percussion

EAC Log
Exact Audio Copy V1.0 beta 3 from 29. August 2011

Отчёт EAC об извлечении, выполненном 20. мая 2015, 5:09

The Mule Newman Band / Somethin' On My Mind

Дисковод: PLEXTOR DVDR PX-880SA Adapter: 1 ID: 0

Режим чтения : Достоверность
Использование точного потока : Да
Отключение кэша аудио : Да
Использование указателей C2 : Нет

Коррекция смещения при чтении : 6
Способность читать области Lead-in и Lead-out : Нет
Заполнение пропущенных сэмплов тишиной : Да
Удаление блоков с тишиной в начале и конце : Нет
При вычислениях CRC использовались нулевые сэмплы : Да
Интерфейс : Установленный внешний ASPI-интерфейс

Выходной формат : Пользовательский кодировщик
Выбранный битрейт : 1024 kBit/s
Качество : Высокий
Добавление ID3-тега : Нет
Утилита сжатия : C:Program FilesExact Audio CopyFLACFLAC.EXE
Дополнительные параметры : -10 -V -T "ARTIST=%artist%" -T "ALBUM=%albumtitle%" -T "DATE=%year%" -T "GENRE=%genre%" -T "COMMENT=ripped by izia1956" %source% TOC извлечённого CD

Трек | Старт | Длительность | Начальный сектор | Конечный сектор
---------------------------------------------------------------------
1 | 0:00.00 | 3:30.52 | 0 | 15801
2 | 3:30.52 | 4:15.24 | 15802 | 34950
3 | 7:46.01 | 3:33.47 | 34951 | 50972
4 | 11:19.48 | 2:39.06 | 50973 | 62903
5 | 13:58.54 | 5:01.26 | 62904 | 85504
6 | 19:00.05 | 2:47.52 | 85505 | 98081
7 | 21:47.57 | 4:09.54 | 98082 | 116810
8 | 25:57.36 | 2:53.46 | 116811 | 129831
9 | 28:51.07 | 4:15.28 | 129832 | 148984
10 | 33:06.35 | 4:03.00 | 148985 | 167209
11 | 37:09.35 | 5:09.50 | 167210 | 190434
12 | 42:19.10 | 5:31.27 | 190435 | 215286
13 | 47:50.37 | 5:13.38 | 215287 | 238799 Характеристики диапазона извлечения и сообщения об ошибках

Выбранный диапазон

Имя файла D:BitCometThe Mule Newman Band2015 - Somethin' On My MindThe Mule Newman Band - Somethin' On My Mind.wav

Пиковый уровень 94.3 %
Скорость извлечения 2.8 X
Качество диапазона 100.0 %
CRC теста 39CADDCE
CRC копии 39CADDCE
Копирование... OK

Ошибок не произошло


AccurateRip: сводка

Трек 1 отсутствует в базе данных
Трек 2 отсутствует в базе данных
Трек 3 отсутствует в базе данных
Трек 4 отсутствует в базе данных
Трек 5 отсутствует в базе данных
Трек 6 отсутствует в базе данных
Трек 7 отсутствует в базе данных
Трек 8 отсутствует в базе данных
Трек 9 отсутствует в базе данных
Трек 10 отсутствует в базе данных
Трек 11 отсутствует в базе данных
Трек 12 отсутствует в базе данных
Трек 13 отсутствует в базе данных

Ни одного трека нет в базе AccurateRip

Конец отчёта

==== Контрольная сумма отчёта 9B3AB165AA42E5D68044C6A2F67E8E21C261B6A6F559556CCCE6B609A7769F40 ====

DR Log
foobar2000 1.2.6 / Dynamic Range Meter 1.1.1
log date: 2015-06-06 21:12:32

--------------------------------------------------------------------------------
Analyzed: The Mule Newman Band / Somethin' On My Mind
--------------------------------------------------------------------------------

DR Peak RMS Duration Track
--------------------------------------------------------------------------------
DR8 -0.51 dB -9.71 dB 3:31 01-Hot Rod Honey
DR8 -1.68 dB -10.91 dB 4:15 02-Kingdom of Heaven
DR7 -1.64 dB -9.15 dB 3:34 03-Wicked Son
DR8 -0.86 dB -11.13 dB 2:39 04-Crooked Palm
DR7 -1.01 dB -8.85 dB 5:01 05-Surfin in the Rain
DR8 -1.41 dB -10.53 dB 2:48 06-She Calls Me Papa
DR8 -0.82 dB -10.37 dB 4:10 07-Slime
DR8 -0.73 dB -10.39 dB 2:54 08-Somethin On My Mind
DR8 -1.65 dB -11.12 dB 4:15 09-Move Me To My Soul
DR8 -1.02 dB -10.37 dB 4:03 10-Dont Let This Moment Pass Us By
DR8 -0.70 dB -9.32 dB 5:10 11-Somewhere Down The Line
DR8 -1.66 dB -10.50 dB 5:31 12-Gone To Oregon
DR7 -1.35 dB -10.12 dB 5:14 13-Gods Country
--------------------------------------------------------------------------------

Number of tracks: 13
Official DR value: DR8

Samplerate: 44100 Hz
Channels: 2
Bits per sample: 16
Bitrate: 1013 kbps
Codec: FLAC
================================================================================

CUETools Log
[CUETools log; Date: 06.06.2015 21:12:25; Version: 2.1.5]
[CTDB TOCID: cgn2wggXzaHwu11Zdox8cK8U5Q8-] disk not present in database.
[AccurateRip ID: 0017bc79-00efc5e1-ac0c700d] disk not present in database.

Track Peak [ CRC32 ] [W/O NULL] [ LOG ]
-- 94,3 [39CADDCE] [5B621A68] CRC32
01 94,3 [6D8F1FB1] [FFA4E54D]
02 82,4 [F4E912BF] [331A3B16]
03 82,7 [D06E61E7] [9E6DE0E6]
04 90,5 [E393300B] [023CCBEF]
05 88,9 [E7700241] [9D9B02C1]
06 85,0 [098C858C] [5FB706C5]
07 90,9 [34247174] [B50EEEF2]
08 91,9 [7D4F0743] [4BEF67CB]
09 82,7 [7E1E857C] [072213BD]
10 88,8 [091E92AE] [FC7EC5B1]
11 92,3 [B833CF91] [909E624C]
12 82,6 [DA501F46] [7E6F7615]
13 85,6 [F6E930F0] [42E454C8]


All thanks go to izia1956
Download:

Uploadable: FLAC-part 1 | FLAC-part 2 | mp3



Gov T Mule Stoned Side Of The Mule | Mind Games 2015 | Somethin To Talk About | Zac Brown Band 2015 | Miles Davis Somethin Else | Carrie Underwood Somethin Bad | Somethin Bad Miranda Lambert And Carrie Underwood | Somethin Bad Miranda Lambert And Carrie Underwood | Joe Newman | The Hustler Newman
The Mule Newman Band - Somethin On My Mind (2015) Torrent Download with keygen, crack, serial, dvdrip, hdrip, HD, 720p, 1024p, 2016, 2015