Tim McGraw - Southern Voice (2009)

New Download Links
Speed
 kbps
 kbps
 kbps

Tim McGraw - Southern Voice (2009)
Country | XLD Rip | FLAC, CUE, LOG | 294MB | English

Southern Voice is an album by country music artist Tim McGraw. It is first album of all new material since 2007's Let It Go album. The lead single from the album, "It's a Business Doing Pleasure with You," was released to radio in late June 2009 and reached #13 on the U.S. Billboard Hot Country Songs chart. The second single, the title track, was released on September 21, 2009, and debuted at #49 on the country chart.


XLD LOG
X Lossless Decoder version 20090930 (110.0)

XLD extraction logfile from 2009-10-17 14:45:22 -0400

Tim McGraw / Southern Voice

Used drive : MATSHITA DVD-R UJ-857E (revision ZA0E)

Use cdparanoia mode : YES (CDParanoia III 10.2 engine)
Disable audio cache : OK for the drive with cache less than 2750KB
Make use of C2 pointers : NO
Read offset correction : 102
Max retry count : 100

TOC of the extracted CD
Track | Start | Length | Start sector | End sector
---------------------------------------------------------
1 | 00:00:00 | 03:44:11 | 0 | 16810
2 | 03:44:11 | 03:50:00 | 16811 | 34060
3 | 07:34:11 | 04:09:50 | 34061 | 52785
4 | 11:43:61 | 03:22:46 | 52786 | 67981
5 | 15:06:32 | 03:08:21 | 67982 | 82102
6 | 18:14:53 | 02:55:64 | 82103 | 95291
7 | 21:10:42 | 04:25:05 | 95292 | 115171
8 | 25:35:47 | 04:02:32 | 115172 | 133353
9 | 29:38:04 | 03:51:25 | 133354 | 150703
10 | 33:29:29 | 04:38:40 | 150704 | 171593
11 | 38:07:69 | 04:34:50 | 171594 | 192193
12 | 42:42:44 | 04:39:33 | 192194 | 213151

All Tracks
Album gain : -8.46 dB
Peak : 1.000000

Track 01
Filename : /Volumes/LIL HILL/What.CD/FLAC output/01 Tim McGraw - Still.flac

Track gain : -8.27 dB
Peak : 0.988190
CRC32 hash (test run) : 4A615AFA
CRC32 hash : 4A615AFA
CRC32 hash (skip zero) : 6E565818
AccurateRip signature : 4EAD43F2
->Track not present in AccurateRip database.
Statistics
Read error : 0
Skipped (treated as error) : 0
Edge jitter error (maybe fixed) : 0
Atom jitter error (maybe fixed) : 0
Drift error (maybe fixed) : 0
Dropped bytes error (maybe fixed) : 0
Duplicated bytes error (maybe fixed) : 0
Inconsistency in error sectors : 0

Track 02
Filename : /Volumes/LIL HILL/What.CD/FLAC output/02 Tim McGraw - Ghost Town Train (She's Gone).flac

Track gain : -8.07 dB
Peak : 1.000000
CRC32 hash (test run) : BCE25A1A
CRC32 hash : BCE25A1A
CRC32 hash (skip zero) : F99B7CAC
AccurateRip signature : 362E2F4D
->Track not present in AccurateRip database.
Statistics
Read error : 0
Skipped (treated as error) : 0
Edge jitter error (maybe fixed) : 0
Atom jitter error (maybe fixed) : 0
Drift error (maybe fixed) : 0
Dropped bytes error (maybe fixed) : 0
Duplicated bytes error (maybe fixed) : 0
Inconsistency in error sectors : 0

Track 03
Filename : /Volumes/LIL HILL/What.CD/FLAC output/03 Tim McGraw - Good Girls.flac

Track gain : -8.08 dB
Peak : 0.980835
CRC32 hash (test run) : E52B031B
CRC32 hash : E52B031B
CRC32 hash (skip zero) : 5096BFDA
AccurateRip signature : 7A5D228B
->Track not present in AccurateRip database.
Statistics
Read error : 0
Skipped (treated as error) : 0
Edge jitter error (maybe fixed) : 0
Atom jitter error (maybe fixed) : 0
Drift error (maybe fixed) : 0
Dropped bytes error (maybe fixed) : 0
Duplicated bytes error (maybe fixed) : 0
Inconsistency in error sectors : 0

Track 04
Filename : /Volumes/LIL HILL/What.CD/FLAC output/04 Tim McGraw - I Didn't Know It At The Time.flac

Track gain : -8.70 dB
Peak : 0.999695
CRC32 hash (test run) : CB81CAC8
CRC32 hash : CB81CAC8
CRC32 hash (skip zero) : D6C89A90
AccurateRip signature : E8AD37B0
->Track not present in AccurateRip database.
Statistics
Read error : 0
Skipped (treated as error) : 0
Edge jitter error (maybe fixed) : 0
Atom jitter error (maybe fixed) : 0
Drift error (maybe fixed) : 0
Dropped bytes error (maybe fixed) : 0
Duplicated bytes error (maybe fixed) : 0
Inconsistency in error sectors : 0

Track 05
Filename : /Volumes/LIL HILL/What.CD/FLAC output/05 Tim McGraw - It's A Business Doing Pleasure With You.flac

Track gain : -8.56 dB
Peak : 0.963745
CRC32 hash (test run) : CF21EA1A
CRC32 hash : CF21EA1A
CRC32 hash (skip zero) : 7701E9E1
AccurateRip signature : 9D6E29B5
->Track not present in AccurateRip database.
Statistics
Read error : 0
Skipped (treated as error) : 0
Edge jitter error (maybe fixed) : 0
Atom jitter error (maybe fixed) : 0
Drift error (maybe fixed) : 0
Dropped bytes error (maybe fixed) : 0
Duplicated bytes error (maybe fixed) : 0
Inconsistency in error sectors : 0

Track 06
Filename : /Volumes/LIL HILL/What.CD/FLAC output/06 Tim McGraw - If I Died Today.flac

Track gain : -7.63 dB
Peak : 0.998962
CRC32 hash (test run) : FCB9AA17
CRC32 hash : FCB9AA17
CRC32 hash (skip zero) : 2A4F2FD9
AccurateRip signature : 4D7D92A6
->Track not present in AccurateRip database.
Statistics
Read error : 0
Skipped (treated as error) : 0
Edge jitter error (maybe fixed) : 0
Atom jitter error (maybe fixed) : 0
Drift error (maybe fixed) : 0
Dropped bytes error (maybe fixed) : 0
Duplicated bytes error (maybe fixed) : 0
Inconsistency in error sectors : 0

Track 07
Filename : /Volumes/LIL HILL/What.CD/FLAC output/07 Tim McGraw - Mr. Whoever You Are.flac

Track gain : -8.45 dB
Peak : 0.999695
CRC32 hash (test run) : 80F83DEC
CRC32 hash : 80F83DEC
CRC32 hash (skip zero) : 05BDF554
AccurateRip signature : 355A4A70
->Track not present in AccurateRip database.
Statistics
Read error : 0
Skipped (treated as error) : 0
Edge jitter error (maybe fixed) : 0
Atom jitter error (maybe fixed) : 0
Drift error (maybe fixed) : 0
Dropped bytes error (maybe fixed) : 0
Duplicated bytes error (maybe fixed) : 0
Inconsistency in error sectors : 0

Track 08
Filename : /Volumes/LIL HILL/What.CD/FLAC output/08 Tim McGraw - Southern Voice.flac

Track gain : -9.45 dB
Peak : 0.960205
CRC32 hash (test run) : 14404D62
CRC32 hash : 14404D62
CRC32 hash (skip zero) : A649EA13
AccurateRip signature : 2D3508E1
->Track not present in AccurateRip database.
Statistics
Read error : 0
Skipped (treated as error) : 0
Edge jitter error (maybe fixed) : 0
Atom jitter error (maybe fixed) : 0
Drift error (maybe fixed) : 0
Dropped bytes error (maybe fixed) : 0
Duplicated bytes error (maybe fixed) : 0
Inconsistency in error sectors : 0

Track 09
Filename : /Volumes/LIL HILL/What.CD/FLAC output/09 Tim McGraw - You Had To Be There.flac

Track gain : -8.55 dB
Peak : 0.945526
CRC32 hash (test run) : 9D402E6B
CRC32 hash : 9D402E6B
CRC32 hash (skip zero) : A804AA63
AccurateRip signature : D34E1EB5
->Track not present in AccurateRip database.
Statistics
Read error : 0
Skipped (treated as error) : 0
Edge jitter error (maybe fixed) : 0
Atom jitter error (maybe fixed) : 0
Drift error (maybe fixed) : 0
Dropped bytes error (maybe fixed) : 0
Duplicated bytes error (maybe fixed) : 0
Inconsistency in error sectors : 0

Track 10
Filename : /Volumes/LIL HILL/What.CD/FLAC output/10 Tim McGraw - I'm Only Jesus.flac

Track gain : -8.26 dB
Peak : 0.993011
CRC32 hash (test run) : E311A258
CRC32 hash : E311A258
CRC32 hash (skip zero) : FC673533
AccurateRip signature : AF67059F
->Track not present in AccurateRip database.
Statistics
Read error : 0
Skipped (treated as error) : 0
Edge jitter error (maybe fixed) : 0
Atom jitter error (maybe fixed) : 0
Drift error (maybe fixed) : 0
Dropped bytes error (maybe fixed) : 0
Duplicated bytes error (maybe fixed) : 0
Inconsistency in error sectors : 0

Track 11
Filename : /Volumes/LIL HILL/What.CD/FLAC output/11 Tim McGraw - Forever Seventeen.flac

Track gain : -8.22 dB
Peak : 0.963745
CRC32 hash (test run) : F4447D37
CRC32 hash : F4447D37
CRC32 hash (skip zero) : 24CFF734
AccurateRip signature : 35CA1293
->Track not present in AccurateRip database.
Statistics
Read error : 0
Skipped (treated as error) : 0
Edge jitter error (maybe fixed) : 0
Atom jitter error (maybe fixed) : 0
Drift error (maybe fixed) : 0
Dropped bytes error (maybe fixed) : 0
Duplicated bytes error (maybe fixed) : 0
Inconsistency in error sectors : 0

Track 12
Filename : /Volumes/LIL HILL/What.CD/FLAC output/12 Tim McGraw - Love You Goodbye.flac

Track gain : -8.07 dB
Peak : 0.999878
CRC32 hash (test run) : BFD26970
CRC32 hash : BFD26970
CRC32 hash (skip zero) : 6532899D
AccurateRip signature : FA5B3E1D
->Track not present in AccurateRip database.
Statistics
Read error : 0
Skipped (treated as error) : 0
Edge jitter error (maybe fixed) : 0
Atom jitter error (maybe fixed) : 0
Drift error (maybe fixed) : 0
Dropped bytes error (maybe fixed) : 0
Duplicated bytes error (maybe fixed) : 0
Inconsistency in error sectors : 0

No errors occurred

End of status report

Track list
1. "Still" (Lee Brice, Kyle Jacobs, Joe Leathers) – 3:43
2. "Ghost Town Train" (Marv Green, Troy Olsen) – 3:49
3. "Good Girls" (Chris Lindsey, Aimee Mayo, Brad Warren, Brett Warren) – 4:09
4. "I Didn't Know It at the Time" (Lee Thomas Miller, Chris Stapleton) – 3:22
5. "It's a Business Doing Pleasure with You" (Brett James, Chad Kroeger) – 3:07
6. "If I Died Today" (Blair Daly, Brad Warren, Brett Warren) – 2:54
7. "Mr. Whoever You Are" (Sean McConnell) – 4:23
8. "Southern Voice" (Bob DiPiero, Tommy Douglas) – 4:01
9. "You Had to Be There" (Casey Beathard, Kenneth Wright) – 3:51
10. "I'm Only Jesus" (Pat Buchanan, Brad Warren, Brett Warren) – 4:37
11. "Forever Seventeen" (Joe Doyle, Josh Kear) – 4:34
12. "Love You Goodbye" (Douglas, Jamie O'Hara) – 4:39



Southern Smoke 2009 | The Law And Mcgraw | Tim Mcgraw Place In The Sun | Nelly And Tim Mcgraw | Nelly Ft Tim Mcgraw | Tim Mcgraw Reflected | Tim Mcgraw Not A Moment Too Soon | Tim Mcgraw Over Is Safe 1 | Tim Mcgraw Over Is Safe 1 | Tim Mcgraw Live
Tim McGraw - Southern Voice (2009) Torrent Download with keygen, crack, serial, dvdrip, hdrip, HD, 720p, 1024p, 2016, 2015